Начать новую тему Ответить на тему
Статистика раздачи
Размер: 843.41 МБ | Добавлен: 24 авг 2016, 14:18 | Скачали: 0
Сидеров: 3  [0 байт/сек]    Личеров: 66  [0 байт/сек]
Пред. тема | След. тема 

Автор
Сообщение

СообщениеДобавлено: 24 авг 2016, 14:18 

Ответить с цитатой 

Elán ‎– Kamikadze Lover


Жанр: Rock/Soft Rock
Носитель: LP
Год выпуска: 1983
Лейбл: Opus ‎– 9113 1359
Страна-производитель: Czechoslovakia
Аудио кодек: FLAC
Тип рипа: image+.cue
Формат записи: 24/192
Формат раздачи: 24/96
Продолжительность: 00:42:44
Тэги в .cue: прописаны
Источник оцифровки: автором раздачи
Код класса состояния винила: VG
Устройство воспроизведения: Электроника ЭП 017С
Головка звукоснимателя: ГЗМ-005
Предварительный усилитель: AMX - 100 (LTO®)
АЦП: Juli@
Программа-оцифровщик: AdobeAudition CS6 5.0.2.
Обработка: удаление щелчков

A1 Reggae Woman On The 29th Floor
Lyrics By – Ľ. Zeman
Lyrics By [English] – V. Čort
Music By – V. Patejdl

A2 Waiting For Love
Lyrics By – P. Jursa
Lyrics By [English] – K. Karovičová
Music By – V. Patejdl

A3 Seventy - Nine
Lyrics By – B. Filan
Music By, Lyrics By [English] – J. Ráž

A4 I Would Like To Whisper
Lyrics By – B. Filan
Lyrics By [English] – K. Karovičová
Music By – J. Farkaš

A5 Living In The Streets
Lyrics By – Ľ. Zeman
Lyrics By [English] – V. Čort
Music By – J. Baláž

A6 Castaway
Lyrics By – Ľ. Zeman
Lyrics By [English] – V. Kočandrle
Music By – V. Patejdl

B1 Friends
Lyrics By – B. Filan
Lyrics By [English] – B. Nosáľová
Music By – J. Ráž

B2 She's Number One
Lyrics By – B. Filan
Lyrics By [English] – V. Čort
Music By – V. Patejdl

B3 I Can Feel No Mercy
Lyrics By – B. Filan
Lyrics By [English] – V. Kočandrle
Music By – J. Ráž

B4 Dutiful Marionette
Lyrics By – Ľ. Zeman
Lyrics By [English] – B. Nosáľová
Music By – V. Patejdl

B5 I Know
Lyrics By – P. Jursa
Lyrics By [English] – A. Kšiňanová
Music By – V. Patejdl

B6 Kamikadze Lover
Lyrics By – B. Filan
Lyrics By [English] – B. Nosáľová
Music By – J. Ráž


Bass Guitar, Vocals – Jozef Ráž
Drums – Zdeno Baláž
Effects [Special] – Ján Došek
Guitar, Acoustic Guitar, Vocals – Juraj Farkaš, Ján Baláž
Lead Vocals – Jozef Ráž (tracks: A2 to A4, B1, B3, B4, B6), Ján Baláž (tracks: A5), Václav Patejdl (tracks: A1, A6, B2, B5)
Performer [Co-performers] – J. Hanúsek Brass Band (tracks: B2)
Piano [Acoustic], Keyboards [Hohner], Organ [Hammond], Synthesizer [Polymoog, Moog Prodigy, Monomoog, Arp 2600], Vocals – Václav Patejdl
Notes

[Previously released in 1982 as “Waiting For Love” with different cover artwork, identical catalog and matrix numbers. A compilation of previously released tracks from two albums and several 7" releases, with overdubbed vocals in English instead of Slovak language (not necessarily translated). Original Slovak track titles: Zlodej slnečníc, Čakám ťa láska, Aj keď bez peňazí, Chcel by som ti šepkať, Ulica, Kaskadér, Kamaráti, Mláďatá, Koľko a čo za to, Tenisky, Ja viem, Kamikadze lásky]

Код:
REM GENRE Rock/Soft Rock
REM DATE 1983
REM COMENT Vinyl, LP, Compilation, Reissue, Opus – 9113 1359, Czechoslovakia
FILE "01. Kamikadze Lover - Side 1.flac" WAVE
  TRACK 01 AUDIO
    TITLE "A1 Reggae Woman On The 29th Floor"
    INDEX 01 00:00:00
  TRACK 02 AUDIO
    TITLE "A2 Waiting For Love"
    INDEX 01 03:28:10
  TRACK 03 AUDIO
    TITLE "A3 Seventy - Nine"
    INDEX 01 08:04:42
  TRACK 04 AUDIO
    TITLE "A4 I Would Like To Whisper"
    INDEX 01 11:54:21
  TRACK 05 AUDIO
    TITLE "A5 Living In The Streets"
    INDEX 01 16:29:14
  TRACK 06 AUDIO
    TITLE "A6 Castaway"
    INDEX 01 19:31:66
FILE "02. Kamikadze Lover - Side 2.flac" WAVE
  TRACK 07 AUDIO
    TITLE "B1 Friends"
    INDEX 01 00:00:00
  TRACK 08 AUDIO
    TITLE "B2 She's Number One"
    INDEX 01 02:42:07
  TRACK 09 AUDIO
    TITLE "B3 I Can Feel No Mercy"
    INDEX 01 06:44:02
  TRACK 10 AUDIO
    TITLE "B4 Dutiful Marionette"
    INDEX 01 09:40:21
  TRACK 11 AUDIO
    TITLE "B5 I Know"
    INDEX 01 12:28:50
  TRACK 12 AUDIO
    TITLE "B6 Kamikadze Lover"
    INDEX 01 16:26:61
В папке раздачи.
Правила, инструкции, FAQ!!!
Торрент  Добавлен [24 авг 2016, 14:18] Скачать торрент Магнет ссылка
Скачать торрент
[ Размер 17.38 КБ / Просмотров 13 ]

Статус
Проверен 
 
Размер  843.41 МБ
Приватный: Нет (DHT включён)
.torrent скачан  0
 


     Отправить личное сообщение
   
Страница 1 из 1
Показать сообщения за:  Поле сортировки  
Начать новую тему Ответить на тему


Сейчас этот форум просматривают: нет зарегистрированных пользователей и гости: 0


Вы не можете начинать темы
Вы не можете отвечать на сообщения
Вы не можете редактировать свои сообщения
Вы не можете удалять свои сообщения
Вы не можете добавлять вложения

Перейти:  
cron