Начать новую тему Ответить на тему
Статистика раздачи
Размер: 575.31 МБ | Добавлен: 24 авг 2016, 11:50 | Скачали: 1
Сидеров: 2  [0 байт/сек]    Личеров: 0  [0 байт/сек]
Пред. тема | След. тема 

Автор
Сообщение

СообщениеДобавлено: 24 авг 2016, 11:50 

Ответить с цитатой 

Robert Plant & The Sensational Space Shifters — Live at Zitadelle Spandau, Berlin, Germany, July 16, 2014
Жанр/Genre/Style: rock
Источник/Source: thetradersden.org
Автор/Taper: Vortex242
Запись/Master: audience recording (AUD)
Продолжительность/Duration: 1:29:46.040

Формат раздачи/Upload specs:
Sample rate : 44100 Hz
Channels : 2
Bits per sample : 16
Codec : FLAC
Encoding : lossless


01. intro (1:25)
02. No Quarter (4:54)
03. Turn It Up (5:22)
04. Spoonful (6:12)
05. Black Dog (7:41)
06. Rainbow (4:23)
07. Going to California (7:00)
08. The Enchanter (9:43)
09. Babe I'm Gonna Leave You (9:39)
10. Little Maggie (6:05)
11. Fixin' to Die Blues (7:02)
12. Muddy Waters intro to... (2:15)
13. Whole Lotta Love (8:08)
14. band introduction (0:35)
15. Nobody's Fault But Mine (4:10)
16. Communication Breakdown (5:13)
Код:
-----------------------

DON'T MODIFY THIS FILE

-----------------------

PERFORMER: auCDtect Task Manager, ver. 1.6.0 RC1 build 1.6.0.1
Copyright (c) 2008-2010 y-soft. All rights reserved
[url=http://y-soft.org]http://y-soft.org[/url]

ANALYZER: auCDtect: CD records authenticity detector, version 0.8.2
Copyright (c) 2004 Oleg Berngardt. All rights reserved.
Copyright (c) 2004 Alexander Djourik. All rights reserved.

FILE: 16. Communication Breakdown.flac
  Size: 36454933 Hash: A865FC4AEAB2D4746D8128CEA8A2750A Accuracy: -m0
  Conclusion: CDDA 99%
  Signature: 77C96A745AA15D6AD7C440EBF8858A2EEB78F808
FILE: 15. Nobody's Fault But Mine.flac
  Size: 25751675 Hash: 2D327D7CA5C37F9F1EC4C99F84CFC3AA Accuracy: -m0
  Conclusion: CDDA 100%
  Signature: 570B3FF9EA064162ED3CEEB816309D800F7961C1
FILE: 14. band introduction.flac
  Size: 3564010 Hash: 6B51876BF1144C455A49A07EA71BB42B Accuracy: -m0
  Conclusion: CDDA 100%
  Signature: 25BB5F0975446DDD221016F4E3852F0A796232BD
FILE: 13. Whole Lotta Love.flac
  Size: 58981081 Hash: 9271AFB3DAC58F0B1524910159D8AB86 Accuracy: -m0
  Conclusion: CDDA 99%
  Signature: 7769C341152F47314507308C7E51B92D242412D1
FILE: 12. Muddy Waters intro to....flac
  Size: 12910063 Hash: 74514595907A3204340EEE4DC6A6A52A Accuracy: -m0
  Conclusion: CDDA 100%
  Signature: CB54B277C57A46CCFD4EAFAEF132B78D5AF93D27
FILE: 11. Fixin' to Die Blues.flac
  Size: 51273392 Hash: EB1A693D20CF2D7B78AC5E1A0B9DD7F7 Accuracy: -m0
  Conclusion: CDDA 100%
  Signature: 32FB46426295E1FC6D7D3673AA7AB221AAC4CCA7
FILE: 10. Little Maggie.flac
  Size: 42057628 Hash: 83A6CEB16F8C417F78D20895F1ED798B Accuracy: -m0
  Conclusion: CDDA 100%
  Signature: 048C16029FA77499F70DC6ADC61CDECD4A7AF33B
FILE: 09. Babe I'm Gonna Leave You.flac
  Size: 59966276 Hash: 831A271152C76F8DE4A6C8D2BAD0BFAA Accuracy: -m0
  Conclusion: CDDA 100%
  Signature: 2B2C63799A9AFF9FE027FEE558CE052B106ADB89
FILE: 08. The Enchanter.flac
  Size: 67978233 Hash: 46D16AAAA45E28B9B3DF29A79983DD54 Accuracy: -m0
  Conclusion: CDDA 100%
  Signature: 08F24C7640FCE0AC9BBAB0B9452170F5006FF2CB
FILE: 07. Going to California.flac
  Size: 43455268 Hash: 7EFA4DEE89619FED776CEB274AD01005 Accuracy: -m0
  Conclusion: CDDA 100%
  Signature: 2B2FFB45BCBFA7CCD4617432939C3F406F852937
FILE: 06. Rainbow.flac
  Size: 30105386 Hash: 77AE83E941AE47524EB3BE642AB0E440 Accuracy: -m0
  Conclusion: CDDA 100%
  Signature: 0888D9633080A0C652A6B9AF01B0EB6E4B1D7265
FILE: 05. Black Dog.flac
  Size: 51249319 Hash: 6BA2098EC78A463249D95C8DCCCBD7D8 Accuracy: -m0
  Conclusion: CDDA 100%
  Signature: 5AAB6ABEE0B5ABA6DBD167E072BA6F00B4428643
FILE: 04. Spoonful.flac
  Size: 41670855 Hash: C96F50751ECB1794E16068D100108293 Accuracy: -m0
  Conclusion: CDDA 100%
  Signature: 7AF553F55F97AE013E3C02D213EA5A1BD2542BFA
FILE: 03. Turn It Up.flac
  Size: 35556563 Hash: 4F45F4E753D55D2867531B2A155EA816 Accuracy: -m0
  Conclusion: CDDA 99%
  Signature: AEAB738A79A4CFD2E4952C3F196722373DAC15B9
FILE: 02. No Quarter.flac
  Size: 32781796 Hash: 2C845311FB457AC398FCE14B6623D85F Accuracy: -m0
  Conclusion: CDDA 99%
  Signature: 24B76B6BD67BC61827601FA7ED5F09839499741C
FILE: 01. intro.flac
  Size: 7360882 Hash: 575077E1C4821F401A5501FDB505E688 Accuracy: -m0
  Conclusion: CDDA 100%
  Signature: 91CB786A4824947A9E882C51DCC836ED5FE0DF10
Код:
foobar2000 1.3.2 / Dynamic Range Meter 1.1.0
log date: 2014-07-21 01:46:31

--------------------------------------------------------------------------------
Analyzed: Robert Plant & The Sensational Space Shifters / Live at Zitadelle Spandau, Berlin, Germany, July 16, 2014 [AUD]
--------------------------------------------------------------------------------

DR         Peak         RMS     Duration Track
--------------------------------------------------------------------------------
DR12      -7.09 dB   -21.18 dB      1:25 01-intro
DR12       0.00 dB   -15.05 dB      4:54 02-No Quarter
DR9        0.00 dB   -13.27 dB      5:22 03-Turn It Up
DR10       0.00 dB   -13.80 dB      6:12 04-Spoonful
DR11       0.00 dB   -13.93 dB      7:41 05-Black Dog
DR15       0.00 dB   -16.68 dB      4:23 06-Rainbow
DR17       0.00 dB   -21.61 dB      7:00 07-Going to California
DR11       0.00 dB   -14.58 dB      9:43 08-The Enchanter
DR11       0.00 dB   -16.86 dB      9:39 09-Babe I'm Gonna Leave You
DR12       0.00 dB   -15.33 dB      6:05 10-Little Maggie
DR10       0.00 dB   -12.28 dB      7:02 11-Fixin' to Die Blues
DR14       0.00 dB   -18.59 dB      2:15 12-Muddy Waters intro to...
DR7        0.00 dB   -10.45 dB      8:08 13-Whole Lotta Love
DR18       0.00 dB   -24.91 dB      0:35 14-band introduction
DR16       0.00 dB   -21.25 dB      4:10 15-Nobody's Fault But Mine
DR12       0.00 dB   -14.80 dB      5:13 16-Communication Breakdown
--------------------------------------------------------------------------------

Number of tracks:  16
Official DR value: DR12

Samplerate:        44100 Hz
Channels:          2
Bits per sample:   16
Bitrate:           931 kbps
Codec:             FLAC
================================================================================
OKMIIr (hat mounted) > A3 > Edirol R-09HR (24/48)
USB > Adobe Audition CC (16/44.1) > CDwave > TLH > flac
Код:
General
Complete name                            : D:\Music (web)\Robert Plant & The Sensational Space Shifters - Live at Zitadelle Spandau, Berlin, Germany, July 16, 2014 [AUD]\02. No Quarter.flac
Format                                   : FLAC
Format/Info                              : Free Lossless Audio Codec
File size                                : 31.3 MiB
Duration                                 : 4mn 54s
Overall bit rate mode                    : Variable
Overall bit rate                         : 894 Kbps
Album                                    : Live at Zitadelle Spandau, Berlin, Germany, July 16, 2014 [AUD]
Track name                               : No Quarter
Track name/Position                      : 2
Track name/Total                         : 16
Performer                                : Robert Plant & The Sensational Space Shifters
Genre                                    : rock
Recorded date                            : 2014
Cover                                    : Yes
Cover type                               : Performer
Cover MIME                               : image/jpeg
Comment                                  : thetradersden.org

Audio
Format                                   : FLAC
Format/Info                              : Free Lossless Audio Codec
Duration                                 : 4mn 54s
Bit rate mode                            : Variable
Bit rate                                 : 892 Kbps
Channel(s)                               : 2 channels
Sampling rate                            : 44.1 KHz
Bit depth                                : 16 bits
Stream size                              : 31.3 MiB (100%)
Writing library                          : libFLAC 1.2.1 (UTC 2007-09-17)
Правила, инструкции, FAQ!!!
Торрент  Добавлен [24 авг 2016, 11:50] Скачать торрент Магнет ссылка
Скачать торрент
[ Размер 12.85 КБ / Просмотров 20 ]

Статус
Проверен 
 
Размер  575.31 МБ
Приватный: Нет (DHT включён)
.torrent скачан  1
 


     Отправить личное сообщение
   
Страница 1 из 1
Показать сообщения за:  Поле сортировки  
Начать новую тему Ответить на тему


Сейчас этот форум просматривают: нет зарегистрированных пользователей и гости: 0


Вы не можете начинать темы
Вы не можете отвечать на сообщения
Вы не можете редактировать свои сообщения
Вы не можете удалять свои сообщения
Вы не можете добавлять вложения

Перейти:  
cron