Начать новую тему Ответить на тему
Статистика раздачи
Размер: 590.83 МБ | Добавлен: 24 авг 2016, 11:46 | Скачали: 5
Сидеров: 5  [0 байт/сек]    Личеров: 2  [0 байт/сек]
Пред. тема | След. тема 

Автор
Сообщение

СообщениеДобавлено: 24 авг 2016, 11:46 

Ответить с цитатой 

Rainbow - Rainbow

Жанр: Rock
Носитель: LP
Год выпуска: 1988
Лейбл: Melodya (Tiflis)
Страна-производитель: USSR
Аудио кодек: FLAC
Тип рипа: tracks+.cue
Формат записи: 32/192
Формат раздачи: 24/48
Продолжительность: 42.05 min
Треклист:
01. Man On The Silver Mountain
02. Still I'm Sad
03. Long Live Rock'N'Roll
04. All Night Long
05. Stone Cold
06. If You Don't Like Rock'N'Roll
07. Stargazer
08. Freedom Figher
09. I Surrender

Источник оцифровки: автором раздачи
Код класса состояния винила: Ex
Устройство воспроизведения: Электроника ЭП 017С
Головка звукоснимателя: Audio-Technica AT95
Предварительный усилитель: Бриг-001
АЦП:VIA HD audio device
Программа-оцифровщик: Izotope RX III Advanced
Обработка: Manual

foobar2000 1.1.10 / Dynamic Range Meter 1.1.1
log date: 2014-11-05 11:34:18

--------------------------------------------------------------------------------
Analyzed: Rainbow / Rainbow
--------------------------------------------------------------------------------

DR Peak RMS Duration Track
--------------------------------------------------------------------------------
DR12 -2.03 dB -16.35 dB 4:39 ?-Man On The Silver Mountain
DR12 -2.20 dB -16.36 dB 3:55 ?-Still I'm Sad
DR11 -1.49 dB -15.00 dB 4:25 ?-Long Live Rock'N'Roll
DR12 -2.75 dB -16.76 dB 3:54 ?-All Night Long
DR11 -2.20 dB -16.40 dB 5:20 ?-Stone Cold
DR12 -1.96 dB -15.74 dB 2:39 ?-If You Don't Like Rock'N'Roll
DR12 -1.45 dB -15.27 dB 8:28 ?-Stargazer
DR11 -2.33 dB -16.11 dB 4:26 ?-Freedom Figher
DR11 -2.82 dB -16.40 dB 4:08 ?-I Surrender
--------------------------------------------------------------------------------

Number of tracks: 9
Official DR value: DR12

Samplerate: 48000 Hz
Channels: 2
Bits per sample: 24
Bitrate: 1901 kbps
Codec: FLAC
================================================================================


Можно опубликовать на любом сайте не спрашивая автора!

Заменено головка AT91 на AT95
Правила, инструкции, FAQ!!!
Торрент  Добавлен [24 авг 2016, 11:46] Скачать торрент Магнет ссылка
Скачать торрент
[ Размер 12.89 КБ / Просмотров 28 ]

Статус
Проверен 
 
Размер  590.83 МБ
Приватный: Нет (DHT включён)
.torrent скачан  5
 


     Отправить личное сообщение
   
Страница 1 из 1
Показать сообщения за:  Поле сортировки  
Начать новую тему Ответить на тему


Сейчас этот форум просматривают: нет зарегистрированных пользователей и гости: 0


Вы не можете начинать темы
Вы не можете отвечать на сообщения
Вы не можете редактировать свои сообщения
Вы не можете удалять свои сообщения
Вы не можете добавлять вложения

Перейти:  
cron
cron