Начать новую тему Ответить на тему
Статистика раздачи
Размер: 423.1 МБ | Добавлен: 24 авг 2016, 11:54 | Скачали: 2
Сидеров: 3  [0 байт/сек]    Личеров: 0  [0 байт/сек]
Пред. тема | След. тема 

Автор
Сообщение

СообщениеДобавлено: 24 авг 2016, 11:54 

Ответить с цитатой 

Puhdys - Puhdys

Жанр: Rock
Носитель: LP
Год выпуска: 1980
Лейбл: Melodya (VSG)
Страна-производитель: USSR
Аудио кодек: FLAC
Тип рипа: tracks+.cue
Формат записи: 32/192
Формат раздачи: 24/48
Продолжительность: 34.10 min
Треклист:
01. Когда умирают мечты [0:04:08.47] - Wenn Traume Sterben
02. Ловцы жемчуга [0:04:28.39] - Perlenfischer
03. Буревестник [0:04:38.69] - Sturmvogel
04. Время жизни [0:03:25.60] - Lebenszeit
05. Путешествие к центру Земли [0:05:34.31] - Reise zum Mittelpunkt der Erde
06. Стайер [0:04:33.19] - Langstreckenlauf
07. Икар [0:04:05.55] - Ikarus
08. Если ты спишь [0:03:54.40] - Manchmal im Schlaf

Источник оцифровки: автором раздачи
Код класса состояния винила: VG
Устройство воспроизведения: Электроника ЭП 017С
Головка звукоснимателя: Audio-Technica AT95
Предварительный усилитель: Бриг-001
АЦП: VIA HD audio device
Программа-оцифровщик: Izotope RX 4 Advanced
Обработка: Izotope RX 4 Advanced
foobar2000 1.1.10 / Dynamic Range Meter 1.1.1
log date: 2015-06-03 10:40:10

--------------------------------------------------------------------------------
Analyzed: Pudys / Pudys
--------------------------------------------------------------------------------

DR Peak RMS Duration Track
--------------------------------------------------------------------------------
DR12 -4.34 dB -18.69 dB 3:59 ?-Kogda umirajut mechty
DR12 -3.34 dB -18.02 dB 4:24 ?-Lovcy Zhemchuga
DR12 -2.78 dB -17.77 dB 4:33 ?-Burevestnik
DR12 -3.05 dB -16.81 dB 3:24 ?-Vremya Zhizni
DR11 -3.46 dB -19.31 dB 5:26 ?-Puteshectvije K Centru Zemli
DR12 -1.97 dB -15.97 dB 4:29 ?-Stayer
DR11 -2.72 dB -14.93 dB 3:58 ?-Ikar
DR11 -3.36 dB -19.09 dB 3:57 ?-Esli Ty Ne Spich
--------------------------------------------------------------------------------

Number of tracks: 8
Official DR value: DR12

Samplerate: 48000 Hz
Channels: 2
Bits per sample: 24
Bitrate: 1529 kbps
Codec: FLAC
================================================================================
Правила, инструкции, FAQ!!!
Торрент  Добавлен [24 авг 2016, 11:54] Скачать торрент Магнет ссылка
Скачать торрент
[ Размер 17.75 КБ / Просмотров 7 ]

Статус
Проверен 
 
Размер  423.1 МБ
Приватный: Нет (DHT включён)
.torrent скачан  2
 


     Отправить личное сообщение
   
Страница 1 из 1
Показать сообщения за:  Поле сортировки  
Начать новую тему Ответить на тему


Сейчас этот форум просматривают: нет зарегистрированных пользователей и гости: 0


Вы не можете начинать темы
Вы не можете отвечать на сообщения
Вы не можете редактировать свои сообщения
Вы не можете удалять свои сообщения
Вы не можете добавлять вложения

Перейти:  
cron
cron