Начать новую тему Ответить на тему
Статистика раздачи
Размер: 1.83 ГБ | Добавлен: 24 авг 2016, 11:54 | Скачали: 1
Сидеров: 6  [0 байт/сек]    Личеров: 6  [0 байт/сек]
Пред. тема | След. тема 

Автор
Сообщение

СообщениеДобавлено: 24 авг 2016, 11:54 

Ответить с цитатой 

Puhdys / Perlenfischer (GDR)

Жанр: Rock
Носитель: LP
Год выпуска: 1979
Лейбл: AMIGA – 8 55 576
Страна-производитель: German Democratic Republic (GDR)
Аудио кодек: FLAC
Тип рипа: image+.cue
Формат записи: 32/192
Формат раздачи: 24/192
Продолжительность: 00:44:16
Источник оцифровки: автором раздачи
Код класса состояния винила: EX
Устройство воспроизведения:Pioneer PL-30L
Головка звукоснимателя: Denon DL-103M
Предварительный усилитель: NAD PP2iM
АЦП: Xonar Essence STX
Программа-оцифровщик: Sound Forge Pro 10
Обработка:подчистил крупные
Puhdys

A1 - Wilde Jahre 5:10
A2 - Sterne Verspaten Sich Nie 7:26
A3 - Spuren Der Nacht 4:35
A4 - Wenn Traume Sterben 4:00

B1 - Perlenfischer 4:40
B2 - Es Fallt Mir Schwer 7:15
B3 - Mephisto 6:30
B4 - Sei Mir Nah 4:25
NO
Companies etc:
Printed By – VEB Gotha-Druck
Made By – VEB Deutsche Schallplatten Berlin
Barcode and Other Identifiers
Rights Society: AWA
Other (retail price): 16,10 M
REM GENRE Rock
REM DATE 1979
REM yamata6839_VINYLRIP
REM AMIGA – 8 55 576, GDR
PERFORMER "Puhdys"
TITLE "Perlenfischer"
FILE "Perlenfischer.flac" WAVE
TRACK 01 AUDIO
TITLE "Wilde Jahre"
PERFORMER "Puhdys"
INDEX 01 00:00:00
TRACK 02 AUDIO
TITLE "Sterne Verspaten Sich Nie"
PERFORMER "Puhdys"
INDEX 01 05:12:46
TRACK 03 AUDIO
TITLE "Spuren Der Nacht"
PERFORMER "Puhdys"
INDEX 01 12:37:10
TRACK 04 AUDIO
TITLE "Wenn Traume Sterben"
PERFORMER "Puhdys"
INDEX 01 17:13:49
TRACK 05 AUDIO
TITLE "Perlenfischer"
PERFORMER "Puhdys"
INDEX 01 21:15:56
TRACK 06 AUDIO
TITLE "Es Fallt Mir Schwer"
PERFORMER "Puhdys"
INDEX 01 25:59:12
TRACK 07 AUDIO
TITLE "Mephisto"
PERFORMER "Puhdys"
INDEX 01 33:16:10
TRACK 08 AUDIO
TITLE "Sei Mir Nah"
PERFORMER "Puhdys"
INDEX 01 39:49:33
Pre :

Nex :

Все материалы представлены исключительно в ознакомительных целях
Правила, инструкции, FAQ!!!
Торрент  Добавлен [24 авг 2016, 11:54] Скачать торрент Магнет ссылка
Скачать торрент
[ Размер 19 КБ / Просмотров 56 ]

Статус
Проверен 
 
Размер  1.83 ГБ
Приватный: Нет (DHT включён)
.torrent скачан  1
 


     Отправить личное сообщение
   
Страница 1 из 1
Показать сообщения за:  Поле сортировки  
Начать новую тему Ответить на тему


Сейчас этот форум просматривают: нет зарегистрированных пользователей и гости: 0


Вы не можете начинать темы
Вы не можете отвечать на сообщения
Вы не можете редактировать свои сообщения
Вы не можете удалять свои сообщения
Вы не можете добавлять вложения

Перейти:  
cron
cron