Начать новую тему Ответить на тему
Статистика раздачи
Размер: 3.26 ГБ | Добавлен: 24 авг 2016, 12:37 | Скачали: 2
Сидеров: 4  [0 байт/сек]    Личеров: 1  [0 байт/сек]
Пред. тема | След. тема 

Автор
Сообщение

СообщениеДобавлено: 24 авг 2016, 12:37 

Ответить с цитатой 

Ironhorse - Ironhorse, Everything Is Grey

Жанр: Rock, Pop Rock
Носитель: LP
Год выпуска: 1979, 80
Лейбл: Scotti Brothers Records ‎– SB 7103, SB 7108
Страна-производитель: USA
Аудио кодек: FLAC
Тип рипа: image+.cue
Формат записи: 24/192
Формат раздачи: 24/192
Продолжительность: 00:35:22, 00:38:48
Источник оцифровки: автором раздачи
Код класса состояния винила: VG+
Устройство воспроизведения: TRIO KP-700D
Головка звукоснимателя: Glanz GMC-10E
Предварительный усилитель: NAD PP2 M / ARCAM delta 290
АЦП: M-Audio Audiophile 192
Программа-оцифровщик: Sound Forge Pro 10
Обработка: Sound Forge Pro 10
Одна из многих короткоживших Канадская рок-группа, образованная в 1979 году и активная в начале восьмидесятых, Рэнди Бахман (ранее Guess Who, и Bachman-Turner Overdrive ) с Томом Sparks (вокал, гитара) , Крис Лейтон (ударные) и Рон Foos ( бас-гитара) . Их первый сингл Сладкий Луи-Луиза в апреле 1979 года достиг позиции # 36 на Billboard США Hot 100 диаграммы.
Альбомы группы на Scotti Brothers Records :
Ironhorse в 1979 году
Everything Is Grey в 1980 году.
#777Треклист:
A1 One And Only 3:32
A2 Sweet Lui-Louise 3:11
A3 Jump Back In The Light 3:11
A4 You Gotta Let Go 4:00
A5 Tumbleweed 3:19
B1 Stateline Blues Backing Vocals – Barry Allen, Mavis McCauley 3:47
B2 Watch Me Fly 3:41
B3 Old Fashioned (Dedicated To Slowhand) 3:10
B4 She's Got It 3:12
B5 There Ain't No Cure 3:57
REM GENRE Pop Rock
REM DATE 1979
REM MViktor_VINYLRIP
REM Scotti Brothers Records – SB 7103, US
REM Producer – Randy Bachman
REM Recorded at Studio 55 "A", Hollywood, California.
PERFORMER "Ironhorse"
TITLE "Ironhorse"
FILE "Ironhorse (Side 1) SB 7103.flac" WAVE
TRACK 01 AUDIO
TITLE "One And Only"
PERFORMER "Randy Bachman"
INDEX 01 00:00:00
TRACK 02 AUDIO
TITLE "Sweet Lui-Louise"
PERFORMER "Randy Bachman"
INDEX 01 03:34:20
TRACK 03 AUDIO
TITLE "Jump Back In The Light"
PERFORMER "Randy Bachman"
INDEX 01 06:48:00
TRACK 04 AUDIO
TITLE "You Gotta Let Go"
PERFORMER "Randy Bachman"
INDEX 01 10:01:20
TRACK 05 AUDIO
TITLE "Tumbleweed"
PERFORMER "Randy Bachman"
INDEX 01 14:02:50
FILE "Ironhorse (Side 2) SB 7103.flac" WAVE
TRACK 06 AUDIO
TITLE "Stateline Blues"
PERFORMER "Tom Sparks"
INDEX 01 00:00:00
TRACK 07 AUDIO
TITLE "Watch Me Fly"
PERFORMER "Tom Sparks"
INDEX 01 03:47:40
TRACK 08 AUDIO
TITLE "Old Fashioned (Dedicated To Slowhand)"
PERFORMER "Randy Bachman"
INDEX 01 07:28:55
TRACK 09 AUDIO
TITLE "She's Got It"
PERFORMER "Tom Sparks"
INDEX 01 10:45:00
TRACK 10 AUDIO
TITLE "There Ain't No Cure"
PERFORMER "Randy Bachman"
INDEX 01 13:57:50

Первые 2 минуты каждой стороны.

Bass – John Pierce
Drums – Mike Baird
Engineer – Colin Green
Engineer [Overdubbing Assistant] – John Austin
Engineer [Recording Assistant] – Tim Dennen
Engineer [Recording, Overdub] – Howard Steele
Mixed By [Mix Supervision And Engineer] – Dennis MacKay
Producer – Randy Bachman
Technician [Tape Op] – Reno Ruocco
Vocals, Guitar – Tom Sparks
Vocals, Guitar, Synthesizer [Roland Synthesizer Guitar] – Randy Bachman
Written-By – Randy Bachman (tracks: A1 to A5, B3, B5), Tom Sparks (tracks: B1, B2, B4)

Recorded at Studio 55 "A", Hollywood, California
Overdubbed at Sundown Recorders, Edmonton, Alberta
Mixed at Trident Studios, London, England
Direction by Waymark, Vancouver, Canada
Special thanks to John Daved Kalodner
#777Треклист:
A1 Everything Is Grey 4:28
A2 What's Your Hurry Darlin' 4:09
A3 Symphony 3:24
A4 Only Way To Fly 3:56
A5 Try A Little Harder 3:30
B1 I'm Hurtin' Inside 3:59
B2 Playin' That Same Old Song 3:50
B3 Railroad Love 3:40
B4 Somewhere, Sometime 3:55
B5 Keep Your Motor Running 3:44
REM GENRE Rock
REM DATE 1980
REM MViktor_VINYLRIP
REM Scotti Brothers Records – SB 7108, US
REM Producer - Randy Bachman and Dennis MacKay
REM Recorded at Legend Studios, Lynden, Washington.
PERFORMER "Ironhorse"
TITLE "Everything Is Grey"
FILE "Everything Is Grey (Side 1) SB 7108.flac" WAVE
TRACK 01 AUDIO
TITLE "Everything Is Grey"
PERFORMER "Randy Bachman"
INDEX 01 00:00:00
TRACK 02 AUDIO
TITLE "What's Your Hurry Darlin'"
PERFORMER "Randy Bachman, Carl Wilson"
INDEX 01 04:10:30
TRACK 03 AUDIO
TITLE "Symphony"
PERFORMER "Randy Bachman, Tom Sparks"
INDEX 01 08:40:30
TRACK 04 AUDIO
TITLE "Only Way To Fly"
PERFORMER "Frank Ludwig"
INDEX 01 12:04:30
TRACK 05 AUDIO
TITLE "Try A Little Harder"
PERFORMER "Randy Bachman, Frank Ludwig"
INDEX 01 16:01:20
FILE "Everything Is Grey (Side 2) SB 7108.flac" WAVE
TRACK 06 AUDIO
TITLE "I'm Hurtin' Inside"
PERFORMER "Randy Bachman"
INDEX 01 00:00:00
TRACK 07 AUDIO
TITLE "Playin' That Same Old Song"
PERFORMER "Randy Bachman, Frank Ludwig"
INDEX 01 03:59:00
TRACK 08 AUDIO
TITLE "Railroad Love"
PERFORMER "Randy Bachman"
INDEX 01 07:52:50
TRACK 09 AUDIO
TITLE "Somewhere, Sometime"
PERFORMER "Randy Bachman, Frank Ludwig"
INDEX 01 11:35:20
TRACK 10 AUDIO
TITLE "Keep Your Motor Running"
PERFORMER "Randy Bachman"
INDEX 01 15:31:20

Первые 2 минуты каждой стороны.

Lead Vocals and Keyboards - Frank Ludwig
Vocals and Synthesizer – Randy Bachman
Drums – Cris Leighton
Bass – Ron Foos
Vocals, Guitar – Tom Sparks

The release had Frank Ludwig (ex-Trooper) replacing Sparks, and featured a minor Canadian hit single in "What's Your Hurry Darlin'", which peaked at 84.
Участие Randy Bachman в проекте
Правила, инструкции, FAQ!!!
Торрент  Добавлен [24 авг 2016, 12:37] Скачать торрент Магнет ссылка
Скачать торрент
[ Размер 18.32 КБ / Просмотров 62 ]

Статус
Проверен 
 
Размер  3.26 ГБ
Приватный: Нет (DHT включён)
.torrent скачан  2
 


     Отправить личное сообщение
   
Страница 1 из 1
Показать сообщения за:  Поле сортировки  
Начать новую тему Ответить на тему


Сейчас этот форум просматривают: нет зарегистрированных пользователей и гости: 0


Вы не можете начинать темы
Вы не можете отвечать на сообщения
Вы не можете редактировать свои сообщения
Вы не можете удалять свои сообщения
Вы не можете добавлять вложения

Перейти:  
cron