Начать новую тему Ответить на тему
Статистика раздачи
Размер: 1.97 ГБ | Добавлен: 24 авг 2016, 12:12 | Скачали: 1
Сидеров: 0  [0 байт/сек]    Личеров: 0  [0 байт/сек]
Пред. тема | След. тема 

Автор
Сообщение

СообщениеДобавлено: 24 авг 2016, 12:12 

Ответить с цитатой 

Lou Reed - Take No Prisoners

Жанр: Rock
Год выпуска: 1978
Лейбл: RCA - Victor
Страна-производитель: Germany
Аудио кодек: FLAC
Тип рипа: image+.cue
Формат записи: 24/96
Формат раздачи: 24/96
Продолжительность: 1.38.40 min
Треклист:
Disc I
01. Intro
02. Sweet Jane
03. I Wanna Be Black
04. Satellite Of Love
05. Pale Blue Eyes
06. Berlin
07. I'm Waiting For My Man

Disc II
01. Coney Island Baby
02. Street Hassle
03. Walk On The Wilde Side
04. Leave Me Alone

Источник оцифровки: автором раздачи
Код класса состояния винила: NM
Устройство воспроизведения: Электроника ЭП017С
Головка звукоснимателя: Audio-Technica AT91
Предварительный усилитель: Бриг-001
АЦП: Sound Blaster Audigy
Программа-оцифровщик: Nero Wave Editor 3
Обработка: Izotope RX Advansed:Declick & Decrackle
foobar2000 1.1.10 / Dynamic Range Meter 1.1.1
log date: 2013-08-10 20:38:44

--------------------------------------------------------------------------------
Analyzed: Lou Reed / Take No Prisoners
--------------------------------------------------------------------------------

DR Peak RMS Duration Track
--------------------------------------------------------------------------------
DR18 -4.12 dB -27.14 dB 2:20 ?-Intro
DR12 -0.30 dB -16.49 dB 8:26 ?-Sweet Jane
DR12 -0.24 dB -14.45 dB 6:28 ?-I Wanna Be Black
DR11 -1.85 dB -16.83 dB 7:06 ?-Satellite Of Love
DR12 -0.33 dB -16.76 dB 7:37 ?-Pale Blue Eyes
DR11 -1.85 dB -16.48 dB 6:14 ?-Berlin
DR13 -1.22 dB -19.65 dB 14:00 ?-I'm Waiting For My Man
--------------------------------------------------------------------------------

Number of tracks: 7
Official DR value: DR13

Samplerate: 96000 Hz
Channels: 2
Bits per sample: 24
Bitrate: 2879 kbps
Codec: FLAC
================================================================
foobar2000 1.1.10 / Dynamic Range Meter 1.1.1
log date: 2013-08-10 20:37:45

--------------------------------------------------------------------------------
Analyzed: Lou Reed / Take No Prisoners
--------------------------------------------------------------------------------

DR Peak RMS Duration Track
--------------------------------------------------------------------------------
DR11 -0.22 dB -14.68 dB 8:41 ?-Coney Island Baby
DR11 -1.28 dB -16.47 dB 13:15 ?-Street Hassle
DR17 -0.53 dB -22.59 dB 16:54 ?-Walk On The Wilde Side
DR12 -0.30 dB -15.12 dB 7:27 ?-Leave Me Alone
--------------------------------------------------------------------------------

Number of tracks: 4
Official DR value: DR13

Samplerate: 96000 Hz
Channels: 2
Bits per sample: 24
Bitrate: 2842 kbps
Codec: FLAC
=============================================================




Правила, инструкции, FAQ!!!
Торрент  Добавлен [24 авг 2016, 12:12] Скачать торрент Магнет ссылка
Скачать торрент
[ Размер 20.76 КБ / Просмотров 9 ]

Статус
Проверен 
 
Размер  1.97 ГБ
Приватный: Нет (DHT включён)
.torrent скачан  1
 


     Отправить личное сообщение
   
Страница 1 из 1
Показать сообщения за:  Поле сортировки  
Начать новую тему Ответить на тему


Сейчас этот форум просматривают: нет зарегистрированных пользователей и гости: 0


Вы не можете начинать темы
Вы не можете отвечать на сообщения
Вы не можете редактировать свои сообщения
Вы не можете удалять свои сообщения
Вы не можете добавлять вложения

Перейти:  
cron
cron