Начать новую тему Ответить на тему
Статистика раздачи
Размер: 5.88 ГБ | Добавлен: 05 дек 2013, 10:35 | Скачали: 1
Сидеров: 13  [0 байт/сек]    Личеров: 2  [0 байт/сек]
Пред. тема | След. тема 

Автор
Сообщение

СообщениеДобавлено: 05 дек 2013, 10:35 

Ответить с цитатой 

Rock Legends: The Gold Collection - John Lennon, Paul McCartney, George Harrison, Ringo Starr 12 CD (2012)

Год:
2012
Жанр: Rock
Продолжительность: 15:22:25
Страна-производитель диска: Россия
Издатель (лейбл): CD Records
Номер по каталогу: n/a
Тип рипа: image+.cue
Битрейт аудио: lossless
Наличие сканов в содержимом раздачи: да (cover+booklet)

Описание: Rock Legends: The Gold Collection участников легендарной четверки The Beatles был выпущен бокс-сетами в 2012 году под лейблом CD Records.
Четыре культовых имени поп-музыки. Вместе они были "Битлз" - группой, которая возглавляет список 50-ти величайших исполнителей всех времен по версии журнала "Rolling Stone".
Правда принцип подбора песен иногда вызывает легкое недоумение: Бокс-сет McCartney начинается с песни "Wino Junko", которую написал и исполняет гитарист Wings Jimmy McCulloch. Он же автор и исполнитель приписанной здесь перу Маккартни песни "Medicine Jar". Песню "Must Do Something About It", действительно, написал Маккартни, но поет на альбоме "Wings at the Speed Of Sound" Joe English. В песне "Deliver Your Children" - ведущий вокал принадлежит Danny Lain.
Трек лист:
#777
Продолжительность: 01:18:02
01. Poor Little Girl (4:33)
02. Cloud 9 (3:14)
03. Blow Away (3:59)
04. My Sweet Lord (2000) (4:59)
05. Cheer Down (4:07)
06. Fish On The Sand (3:24)
07. Cockamamie Business (5:16)
08. This Is Love (3:49)
09. Not Guilty (3:30)
10. Hong Kong Blues (2:52)
11. Just For Today (4:05)
12. Love Comes To Everyone (3:41)
13. I Really Love You (2:56)
14. If You Believe (2:52)
15. Got My Mind Set On You (3:51)
16. Pisces Fish (4:49)
17. Baltimore Oriole (3:55)
18. Roll Over Beethoven (Live) (3:31)
19. While My Guitar Gently Weeps (Live) (4:46)
20. Devil's Radio (3:53)
Код:
Код:
REM GENRE Rock
REM DATE 2012
REM DISCID 23125314
REM COMMENT "ExactAudioCopy v1.0b1"
PERFORMER "George Harrison"
TITLE "The Gold Collection (CD1)"
FILE "George Harrison - The Gold Collection (CD1).flac" WAVE
  TRACK 01 AUDIO
    TITLE "Poor Little Girl"
    PERFORMER "George Harrison"
    INDEX 01 00:00:00
  TRACK 02 AUDIO
    TITLE "Cloud 9"
    PERFORMER "George Harrison"
    INDEX 01 04:33:38
  TRACK 03 AUDIO
    TITLE "Blow Away"
    PERFORMER "George Harrison"
    INDEX 01 07:47:45
  TRACK 04 AUDIO
    TITLE "My Sweet Lord (2000)"
    PERFORMER "George Harrison"
    INDEX 01 11:47:05
  TRACK 05 AUDIO
    TITLE "Cheer Down"
    PERFORMER "George Harrison"
    INDEX 01 16:46:15
  TRACK 06 AUDIO
    TITLE "Fish On The Sand"
    PERFORMER "George Harrison"
    INDEX 01 20:53:72
  TRACK 07 AUDIO
    TITLE "Cockamamie Business"
    PERFORMER "George Harrison"
    INDEX 01 24:18:17
  TRACK 08 AUDIO
    TITLE "This Is Love"
    PERFORMER "George Harrison"
    INDEX 01 29:34:57
  TRACK 09 AUDIO
    TITLE "Not Guilty"
    PERFORMER "George Harrison"
    INDEX 01 33:24:09
  TRACK 10 AUDIO
    TITLE "Hong Kong Blues"
    PERFORMER "George Harrison"
    INDEX 01 36:54:19
  TRACK 11 AUDIO
    TITLE "Just For Today"
    PERFORMER "George Harrison"
    INDEX 01 39:46:22
  TRACK 12 AUDIO
    TITLE "Love Comes To Everyone"
    PERFORMER "George Harrison"
    INDEX 01 43:52:17
  TRACK 13 AUDIO
    TITLE "I Really Love You"
    PERFORMER "George Harrison"
    INDEX 01 47:34:12
  TRACK 14 AUDIO
    TITLE "If You Believe"
    PERFORMER "George Harrison"
    INDEX 01 50:31:02
  TRACK 15 AUDIO
    TITLE "Got My Mind Set On You"
    PERFORMER "George Harrison"
    INDEX 01 53:23:47
  TRACK 16 AUDIO
    TITLE "Pisces Fish"
    PERFORMER "George Harrison"
    INDEX 01 57:14:67
  TRACK 17 AUDIO
    TITLE "Baltimore Oriole"
    PERFORMER "George Harrison"
    INDEX 01 62:04:06
  TRACK 18 AUDIO
    TITLE "Roll Over Beethoven (Live)"
    PERFORMER "George Harrison"
    INDEX 01 65:59:21
  TRACK 19 AUDIO
    TITLE "While My Guitar Gently Weeps (Live)"
    PERFORMER "George Harrison"
    INDEX 01 69:31:13
  TRACK 20 AUDIO
    TITLE "Devil's Radio"
    PERFORMER "George Harrison"
    INDEX 01 74:17:67
Код:
Код:
Exact Audio Copy V1.0 beta 1 from 15. November 2010

EAC extraction logfile from 30. May 2012, 0:07

George Harrison / The Gold Collection (CD1)

Used drive  : ATAPI   iHAP122   W   Adapter: 1  ID: 0

Read mode               : Secure
Utilize accurate stream : Yes
Defeat audio cache      : Yes
Make use of C2 pointers : No

Read offset correction                      : 6
Overread into Lead-In and Lead-Out          : No
Fill up missing offset samples with silence : Yes
Delete leading and trailing silent blocks   : No
Null samples used in CRC calculations       : Yes
Used interface                              : Native Win32 interface for Win NT & 2000

Used output format : Internal WAV Routines
Sample format      : 44.100 Hz; 16 Bit; Stereo

TOC of the extracted CD

     Track |   Start  |  Length  | Start sector | End sector
    ---------------------------------------------------------
        1  |  0:00.00 |  4:33.38 |         0    |    20512
        2  |  4:33.38 |  3:14.07 |     20513    |    35069
        3  |  7:47.45 |  3:59.35 |     35070    |    53029
        4  | 11:47.05 |  4:59.10 |     53030    |    75464
        5  | 16:46.15 |  4:07.57 |     75465    |    94046
        6  | 20:53.72 |  3:24.20 |     94047    |   109366
        7  | 24:18.17 |  5:16.40 |    109367    |   133106
        8  | 29:34.57 |  3:49.27 |    133107    |   150308
        9  | 33:24.09 |  3:30.10 |    150309    |   166068
       10  | 36:54.19 |  2:52.03 |    166069    |   178971
       11  | 39:46.22 |  4:05.70 |    178972    |   197416
       12  | 43:52.17 |  3:41.70 |    197417    |   214061
       13  | 47:34.12 |  2:56.65 |    214062    |   227326
       14  | 50:31.02 |  2:52.45 |    227327    |   240271
       15  | 53:23.47 |  3:51.20 |    240272    |   257616
       16  | 57:14.67 |  4:49.14 |    257617    |   279305
       17  | 62:04.06 |  3:55.15 |    279306    |   296945
       18  | 65:59.21 |  3:31.67 |    296946    |   312837
       19  | 69:31.13 |  4:46.54 |    312838    |   334341
       20  | 74:17.67 |  3:53.48 |    334342    |   351864

Range status and errors

Selected range

     Filename C:\MusicBox\George Harrison - The Gold Collection (CD1).wav

     Peak level 100.0 %
     Extraction speed 0.4 X
     Range quality 100.0 %
     Copy CRC C0472261
     Copy OK

No errors occurred

End of status report
Код:
Код:
-----------------------

DON'T MODIFY THIS FILE

-----------------------

PERFORMER: auCDtect Task Manager, ver. 1.5.1RC6 build 1.5.1.7
Copyright (c) 2008-2010 y-soft. All rights reserved
http:/y-soft.org

ANALYZER: auCDtect: CD records authenticity detector, version 0.8.2
Copyright (c) 2004 Oleg Berngardt. All rights reserved.
Copyright (c) 2004 Alexander Djourik. All rights reserved.

FILE: George Harrison - The Gold Collection (CD1).flac
  Size: 542694008 Hash: D7305269FFD0BF2B24D8586A8451FA49 Accuracy: -m0
  Conclusion: CDDA 100%
  Signature: A8AA539B79F54868AB4144AF2A5970F5617E8CBB
Продолжительность: 01:17:27

01. Stuck Inside A Cloud (4:01)
02. Brainwashed (6:02)
03. Any Road (3:51)
04. Rising Sun (5:27)
05. This Song (4:09)
06. True Love (2:42)
07. P2 Vatican Blues (Last Saturday Night) (2:36)
08. Never Get Over You (3:23)
09. Greece (Instrumental) (4:03)
10. That's What It Takes (4:01)
11. Unconsciousness Rules (3:03)
12. When We Was Fab (3:56)
13. All Those Years Ago (3:44)
14. Wreck Of The Hesperus (3:33)
15. Dream Away (3:53)
16. Ballad Of Sir Frankie Crisp (Let It Roll) (3:48)
17. Something (Live) (3:10)
18. Marwa Blues (3:41)
19. Harrison - Mystical One (3:44)
20. My Sweet Lord (4:40)
Код:
Код:
REM GENRE Rock
REM DATE 2012
REM DISCID 2C123214
REM COMMENT "ExactAudioCopy v1.0b1"
PERFORMER "George Harrison"
TITLE "The Gold Collection (CD2)"
FILE "George Harrison - The Gold Collection (CD2).wav" WAVE
  TRACK 01 AUDIO
    TITLE "Stuck Inside A Cloud"
    PERFORMER "George Harrison"
    INDEX 01 00:00:00
  TRACK 02 AUDIO
    TITLE "Brainwashed"
    PERFORMER "George Harrison"
    INDEX 01 04:01:64
  TRACK 03 AUDIO
    TITLE "Any Road"
    PERFORMER "George Harrison"
    INDEX 01 10:04:63
  TRACK 04 AUDIO
    TITLE "Rising Sun"
    PERFORMER "George Harrison"
    INDEX 01 13:56:62
  TRACK 05 AUDIO
    TITLE "This Song"
    PERFORMER "George Harrison"
    INDEX 01 19:24:04
  TRACK 06 AUDIO
    TITLE "True Love"
    PERFORMER "George Harrison"
    INDEX 01 23:34:02
  TRACK 07 AUDIO
    TITLE "P2 Vatican Blues (Last Saturday Night)"
    PERFORMER "George Harrison"
    INDEX 01 26:16:73
  TRACK 08 AUDIO
    TITLE "Never Get Over You"
    PERFORMER "George Harrison"
    INDEX 01 28:53:34
  TRACK 09 AUDIO
    TITLE "Greece (Instrumental)"
    PERFORMER "George Harrison"
    INDEX 01 32:16:71
  TRACK 10 AUDIO
    TITLE "That's What It Takes"
    PERFORMER "George Harrison"
    INDEX 01 36:20:29
  TRACK 11 AUDIO
    TITLE "Unconsciousness Rules"
    PERFORMER "George Harrison"
    INDEX 01 40:21:32
  TRACK 12 AUDIO
    TITLE "When We Was Fab"
    PERFORMER "George Harrison"
    INDEX 01 43:24:42
  TRACK 13 AUDIO
    TITLE "All Those Years Ago"
    PERFORMER "George Harrison"
    INDEX 01 47:21:40
  TRACK 14 AUDIO
    TITLE "Wreck Of The Hesperus"
    PERFORMER "George Harrison"
    INDEX 01 51:06:20
  TRACK 15 AUDIO
    TITLE "Dream Away"
    PERFORMER "George Harrison"
    INDEX 01 54:39:59
  TRACK 16 AUDIO
    TITLE "Ballad Of Sir Frankie Crisp (Let It Roll)"
    PERFORMER "George Harrison"
    INDEX 01 58:33:07
  TRACK 17 AUDIO
    TITLE "Something (Live)"
    PERFORMER "George Harrison"
    INDEX 01 62:21:57
  TRACK 18 AUDIO
    TITLE "Marwa Blues"
    PERFORMER "George Harrison"
    INDEX 01 65:31:63
  TRACK 19 AUDIO
    TITLE "Mystical One"
    PERFORMER "George Harrison"
    INDEX 01 69:13:08
  TRACK 20 AUDIO
    TITLE "My Sweet Lord"
    PERFORMER "George Harrison"
    INDEX 01 72:57:71

Код:
Код:
Exact Audio Copy V1.0 beta 1 from 15. November 2010

EAC extraction logfile from 30. May 2012, 0:22

George Harrison / The Gold Collection (CD2)

Used drive  : ATAPI   iHAP122   W   Adapter: 1  ID: 0

Read mode               : Secure
Utilize accurate stream : Yes
Defeat audio cache      : Yes
Make use of C2 pointers : No

Read offset correction                      : 6
Overread into Lead-In and Lead-Out          : No
Fill up missing offset samples with silence : Yes
Delete leading and trailing silent blocks   : No
Null samples used in CRC calculations       : Yes
Used interface                              : Native Win32 interface for Win NT & 2000

Used output format : Internal WAV Routines
Sample format      : 44.100 Hz; 16 Bit; Stereo

TOC of the extracted CD

     Track |   Start  |  Length  | Start sector | End sector
    ---------------------------------------------------------
        1  |  0:00.00 |  4:01.64 |         0    |    18138
        2  |  4:01.64 |  6:02.74 |     18139    |    45362
        3  | 10:04.63 |  3:51.74 |     45363    |    62761
        4  | 13:56.62 |  5:27.17 |     62762    |    87303
        5  | 19:24.04 |  4:09.73 |     87304    |   106051
        6  | 23:34.02 |  2:42.71 |    106052    |   118272
        7  | 26:16.73 |  2:36.36 |    118273    |   130008
        8  | 28:53.34 |  3:23.37 |    130009    |   145270
        9  | 32:16.71 |  4:03.33 |    145271    |   163528
       10  | 36:20.29 |  4:01.03 |    163529    |   181606
       11  | 40:21.32 |  3:03.10 |    181607    |   195341
       12  | 43:24.42 |  3:56.73 |    195342    |   213114
       13  | 47:21.40 |  3:44.55 |    213115    |   229969
       14  | 51:06.20 |  3:33.39 |    229970    |   245983
       15  | 54:39.59 |  3:53.23 |    245984    |   263481
       16  | 58:33.07 |  3:48.50 |    263482    |   280631
       17  | 62:21.57 |  3:10.06 |    280632    |   294887
       18  | 65:31.63 |  3:41.20 |    294888    |   311482
       19  | 69:13.08 |  3:44.63 |    311483    |   328345
       20  | 72:57.71 |  4:40.44 |    328346    |   349389

Range status and errors

Selected range

     Filename C:\MusicBox\George Harrison - The Gold Collection (CD2).wav

     Peak level 100.0 %
     Extraction speed 0.5 X
     Range quality 99.9 %
     Copy CRC 9B4E964C
     Copy OK

No errors occurred

End of status report

Код:
Код:
-----------------------

DON'T MODIFY THIS FILE

-----------------------

PERFORMER: auCDtect Task Manager, ver. 1.5.1RC6 build 1.5.1.7
Copyright (c) 2008-2010 y-soft. All rights reserved
http:/y-soft.org

ANALYZER: auCDtect: CD records authenticity detector, version 0.8.2
Copyright (c) 2004 Oleg Berngardt. All rights reserved.
Copyright (c) 2004 Alexander Djourik. All rights reserved.

FILE: George Harrison - The Gold Collection (CD2).flac
  Size: 533828288 Hash: 07CE9B43F200DE676F3518DD4F444C54 Accuracy: -m0
  Conclusion: CDDA 99%
  Signature: F54AFE5AF69BBBA987184AA7003FC6F1EED8814F

Продолжительность: 01:15:51

01. Teardrops (4:04)
02. I Don't Want To Do It (2:54)
03. Someplace Else (3:52)
04. Taxman (Live) (4:05)
05. While My Guitar Gently Weeps (4:47)
06. Here Comes The Moon (4:09)
07. It's What You Value (5:05)
08. Life Itself (4:24)
09. Crackerbox Palace (3:56)
10. Wake Up My Love (3:32)
11. Art Of Dying (3:33)
12. Baby Don't Run Away (3:43)
13. Give Me Love (Give Me Peace On Earth) (3:35)
14. That's The Way It Goes (3:33)
15. This Guitar (3:26)
16. If Not For You (3:26)
17. What Is Life (4:13)
18. That Which I Have Lost (3:43)
19. Awaiting On You All (2:44)
20. Here Comes The Sun (3:07)
Код:
Код:
REM GENRE Rock
REM DATE 2012
REM DISCID 2311CF14
REM COMMENT "ExactAudioCopy v1.0b1"
PERFORMER "George Harrison"
TITLE "The Gold Collection (CD3)"
FILE "George Harrison - The Gold Collection (CD3).flac" WAVE
  TRACK 01 AUDIO
    TITLE "Teardrops"
    PERFORMER "George Harrison"
    INDEX 01 00:00:00
  TRACK 02 AUDIO
    TITLE "I Don't Want To Do It"
    PERFORMER "George Harrison"
    INDEX 01 04:04:53
  TRACK 03 AUDIO
    TITLE "Someplace Else"
    PERFORMER "George Harrison"
    INDEX 01 06:59:22
  TRACK 04 AUDIO
    TITLE "Taxman (Live)"
    PERFORMER "George Harrison"
    INDEX 01 10:51:74
  TRACK 05 AUDIO
    TITLE "While My Guitar Gently Weeps"
    PERFORMER "George Harrison"
    INDEX 01 14:57:21
  TRACK 06 AUDIO
    TITLE "Here Comes The Moon"
    PERFORMER "George Harrison"
    INDEX 01 19:44:53
  TRACK 07 AUDIO
    TITLE "It's What You Value"
    PERFORMER "George Harrison"
    INDEX 01 23:53:56
  TRACK 08 AUDIO
    TITLE "Life Itself"
    PERFORMER "George Harrison"
    INDEX 01 28:59:10
  TRACK 09 AUDIO
    TITLE "Crackerbox Palace"
    PERFORMER "George Harrison"
    INDEX 01 33:23:63
  TRACK 10 AUDIO
    TITLE "Wake Up My Love"
    PERFORMER "George Harrison"
    INDEX 01 37:20:13
  TRACK 11 AUDIO
    TITLE "Art Of Dying"
    PERFORMER "George Harrison"
    INDEX 01 40:52:18
  TRACK 12 AUDIO
    TITLE "Baby Don't Run Away"
    PERFORMER "George Harrison"
    INDEX 01 44:25:61
  TRACK 13 AUDIO
    TITLE "Give Me Love (Give Me Peace On Earth)"
    PERFORMER "George Harrison"
    INDEX 01 48:09:11
  TRACK 14 AUDIO
    TITLE "That's The Way It Goes"
    PERFORMER "George Harrison"
    INDEX 01 51:44:30
  TRACK 15 AUDIO
    TITLE "This Guitar"
    PERFORMER "George Harrison"
    INDEX 01 55:17:67
  TRACK 16 AUDIO
    TITLE "If Not For You"
    PERFORMER "George Harrison"
    INDEX 01 58:44:00
  TRACK 17 AUDIO
    TITLE "What Is Life"
    PERFORMER "George Harrison"
    INDEX 01 62:10:26
  TRACK 18 AUDIO
    TITLE "That Which I Have Lost"
    PERFORMER "George Harrison"
    INDEX 01 66:23:57
  TRACK 19 AUDIO
    TITLE "Awaiting On You All"
    PERFORMER "George Harrison"
    INDEX 01 70:07:48
  TRACK 20 AUDIO
    TITLE "Here Comes The Sun"
    PERFORMER "George Harrison"
    INDEX 01 72:51:64

Код:
Код:
Exact Audio Copy V1.0 beta 1 from 15. November 2010

EAC extraction logfile from 30. May 2012, 0:36

George Harrison / The Gold Collection (CD3)

Used drive  : ATAPI   iHAP122   W   Adapter: 1  ID: 0

Read mode               : Secure
Utilize accurate stream : Yes
Defeat audio cache      : Yes
Make use of C2 pointers : No

Read offset correction                      : 6
Overread into Lead-In and Lead-Out          : No
Fill up missing offset samples with silence : Yes
Delete leading and trailing silent blocks   : No
Null samples used in CRC calculations       : Yes
Used interface                              : Native Win32 interface for Win NT & 2000

Used output format : Internal WAV Routines
Sample format      : 44.100 Hz; 16 Bit; Stereo

TOC of the extracted CD

     Track |   Start  |  Length  | Start sector | End sector
    ---------------------------------------------------------
        1  |  0:00.00 |  4:04.53 |         0    |    18352
        2  |  4:04.53 |  2:54.44 |     18353    |    31446
        3  |  6:59.22 |  3:52.52 |     31447    |    48898
        4  | 10:51.74 |  4:05.22 |     48899    |    67295
        5  | 14:57.21 |  4:47.32 |     67296    |    88852
        6  | 19:44.53 |  4:09.03 |     88853    |   107530
        7  | 23:53.56 |  5:05.29 |    107531    |   130434
        8  | 28:59.10 |  4:24.53 |    130435    |   150287
        9  | 33:23.63 |  3:56.25 |    150288    |   168012
       10  | 37:20.13 |  3:32.05 |    168013    |   183917
       11  | 40:52.18 |  3:33.43 |    183918    |   199935
       12  | 44:25.61 |  3:43.25 |    199936    |   216685
       13  | 48:09.11 |  3:35.19 |    216686    |   232829
       14  | 51:44.30 |  3:33.37 |    232830    |   248841
       15  | 55:17.67 |  3:26.08 |    248842    |   264299
       16  | 58:44.00 |  3:26.26 |    264300    |   279775
       17  | 62:10.26 |  4:13.31 |    279776    |   298781
       18  | 66:23.57 |  3:43.66 |    298782    |   315572
       19  | 70:07.48 |  2:44.16 |    315573    |   327888
       20  | 72:51.64 |  3:07.45 |    327889    |   341958

Range status and errors

Selected range

     Filename C:\MusicBox\George Harrison - The Gold Collection (CD3).wav

     Peak level 100.0 %
     Extraction speed 0.4 X
     Range quality 100.0 %
     Copy CRC EB464446
     Copy OK

No errors occurred

End of status report

Код:
Код:
-----------------------

DON'T MODIFY THIS FILE

-----------------------

PERFORMER: auCDtect Task Manager, ver. 1.5.1RC6 build 1.5.1.7
Copyright (c) 2008-2010 y-soft. All rights reserved
http:/y-soft.org

ANALYZER: auCDtect: CD records authenticity detector, version 0.8.2
Copyright (c) 2004 Oleg Berngardt. All rights reserved.
Copyright (c) 2004 Alexander Djourik. All rights reserved.

FILE: George Harrison - The Gold Collection (CD3).flac
  Size: 528232057 Hash: 445746CAC1D9654F8965253515FF3C47 Accuracy: -m0
  Conclusion: CDDA 99%
  Signature: 18E47F6E9D2E6534BBAD0A4E220BE3DDC5898FFF

#777
Продолжительность: 01:17:26

01. Only You (3:22)
02. I'm Stepping Out (4:05)
03. Steel And Glass (4:33)
04. Stand By Me (3:23)
05. Woman (3:31)
06. I Don't Wanna Face It (3:20)
07. Starting Over (3:53)
08. Whatever Gets You Thru The Night (3:24)
09. Watching The Wheels (3:59)
10. Medley: Rip It Up\Ready Teddy (1:32)
11. Surprise, Surprise (Sweet Bird Of Paradox) (2:53)
12. Cleanup Time (2:55)
13. Every Man Has A Woman Who Loves Him (4:01)
14. Walking On Thin Ice (5:57)
15. I'm Losing You (3:56)
16. Imagine (3:00)
17. Scared (4:32)
18. Slippin' And Slidin' (2:14)
19. Sweet Little Sixteen (2:58)
20. Beautiful Boy (Darling Boy) (3:58)
21. Ain't That A Shame (2:36)
22. Beef Jerky (3:24)
Код:
Код:
REM GENRE Rock
REM DATE 2012
REM DISCID 51123116
REM COMMENT "ExactAudioCopy v1.0b1"
PERFORMER "John Lennon"
TITLE "The Gold Collection [CD1]"
FILE "John Lennon - The Gold Collection [CD1].flac" WAVE
  TRACK 01 AUDIO
    TITLE "Only You"
    PERFORMER "John Lennon"
    INDEX 01 00:00:00
  TRACK 02 AUDIO
    TITLE "I'm Stepping Out"
    PERFORMER "John Lennon"
    INDEX 01 03:22:14
  TRACK 03 AUDIO
    TITLE "Steel And Glass"
    PERFORMER "John Lennon"
    INDEX 01 07:27:60
  TRACK 04 AUDIO
    TITLE "Stand By Me"
    PERFORMER "John Lennon"
    INDEX 01 12:01:17
  TRACK 05 AUDIO
    TITLE "Woman"
    PERFORMER "John Lennon"
    INDEX 01 15:25:05
  TRACK 06 AUDIO
    TITLE "I Don't Wanna Face It"
    PERFORMER "John Lennon"
    INDEX 01 18:56:12
  TRACK 07 AUDIO
    TITLE "(Just Like) Starting Over"
    PERFORMER "John Lennon"
    INDEX 01 22:16:47
  TRACK 08 AUDIO
    TITLE "Whatever Gets You Thru The Night"
    PERFORMER "John Lennon"
    INDEX 01 26:10:40
  TRACK 09 AUDIO
    TITLE "Watching The Wheels"
    PERFORMER "John Lennon"
    INDEX 01 29:34:67
  TRACK 10 AUDIO
    TITLE "Medley: Rip It Up\Ready Teddy"
    PERFORMER "John Lennon"
    INDEX 01 33:33:68
  TRACK 11 AUDIO
    TITLE "Surprise, Surprise (Sweet Bird Of Paradox)"
    PERFORMER "John Lennon"
    INDEX 01 35:06:39
  TRACK 12 AUDIO
    TITLE "Cleanup Time"
    PERFORMER "John Lennon"
    INDEX 01 37:59:39
  TRACK 13 AUDIO
    TITLE "Every Man Has A Woman Who Loves Him"
    PERFORMER "John Lennon"
    INDEX 01 40:55:34
  TRACK 14 AUDIO
    TITLE "Walking On Thin Ice"
    PERFORMER "John Lennon"
    INDEX 01 44:57:29
  TRACK 15 AUDIO
    TITLE "I'm Losing You"
    PERFORMER "John Lennon"
    INDEX 01 50:55:07
  TRACK 16 AUDIO
    TITLE "Imagine"
    PERFORMER "John Lennon"
    INDEX 01 54:51:66
  TRACK 17 AUDIO
    TITLE "Scared"
    PERFORMER "John Lennon"
    INDEX 01 57:52:26
  TRACK 18 AUDIO
    TITLE "Slippin' And Slidin'"
    PERFORMER "John Lennon"
    INDEX 01 62:24:73
  TRACK 19 AUDIO
    TITLE "Sweet Little Sixteen"
    PERFORMER "John Lennon"
    INDEX 01 64:39:68
  TRACK 20 AUDIO
    TITLE "Beautiful Boy (Darling Boy)"
    PERFORMER "John Lennon"
    INDEX 01 67:38:57
  TRACK 21 AUDIO
    TITLE "Ain't That A Shame"
    PERFORMER "John Lennon"
    INDEX 01 71:36:57
  TRACK 22 AUDIO
    TITLE "Beef Jerky"
    PERFORMER "John Lennon"
    INDEX 01 74:13:08

Код:
Код:
Exact Audio Copy V1.0 beta 1 from 15. November 2010

EAC extraction logfile from 1. June 2012, 17:53

John Lennon / The Gold Collection [CD1]

Used drive  : ATAPI   iHAP122   W   Adapter: 1  ID: 0

Read mode               : Secure
Utilize accurate stream : Yes
Defeat audio cache      : Yes
Make use of C2 pointers : No

Read offset correction                      : 6
Overread into Lead-In and Lead-Out          : No
Fill up missing offset samples with silence : Yes
Delete leading and trailing silent blocks   : No
Null samples used in CRC calculations       : Yes
Used interface                              : Native Win32 interface for Win NT & 2000

Used output format : Internal WAV Routines
Sample format      : 44.100 Hz; 16 Bit; Stereo

TOC of the extracted CD

     Track |   Start  |  Length  | Start sector | End sector
    ---------------------------------------------------------
        1  |  0:00.00 |  3:22.14 |         0    |    15163
        2  |  3:22.14 |  4:05.46 |     15164    |    33584
        3  |  7:27.60 |  4:33.32 |     33585    |    54091
        4  | 12:01.17 |  3:23.63 |     54092    |    69379
        5  | 15:25.05 |  3:31.07 |     69380    |    85211
        6  | 18:56.12 |  3:20.35 |     85212    |   100246
        7  | 22:16.47 |  3:53.68 |    100247    |   117789
        8  | 26:10.40 |  3:24.27 |    117790    |   133116
        9  | 29:34.67 |  3:59.01 |    133117    |   151042
       10  | 33:33.68 |  1:32.46 |    151043    |   157988
       11  | 35:06.39 |  2:53.00 |    157989    |   170963
       12  | 37:59.39 |  2:55.70 |    170964    |   184158
       13  | 40:55.34 |  4:01.70 |    184159    |   202303
       14  | 44:57.29 |  5:57.53 |    202304    |   229131
       15  | 50:55.07 |  3:56.59 |    229132    |   246890
       16  | 54:51.66 |  3:00.35 |    246891    |   260425
       17  | 57:52.26 |  4:32.47 |    260426    |   280872
       18  | 62:24.73 |  2:14.70 |    280873    |   290992
       19  | 64:39.68 |  2:58.64 |    290993    |   304406
       20  | 67:38.57 |  3:58.00 |    304407    |   322256
       21  | 71:36.57 |  2:36.26 |    322257    |   333982
       22  | 74:13.08 |  3:24.26 |    333983    |   349308

Range status and errors

Selected range

     Filename C:\MusicBox\John Lennon - The Gold Collection [CD1].wav

     Peak level 99.3 %
     Extraction speed 0.4 X
     Range quality 100.0 %
     Copy CRC 9B50A844
     Copy OK

No errors occurred

End of status report

Код:
Код:
-----------------------

DON'T MODIFY THIS FILE

-----------------------

PERFORMER: auCDtect Task Manager, ver. 1.5.1RC6 build 1.5.1.7
Copyright (c) 2008-2010 y-soft. All rights reserved
http:/y-soft.org

ANALYZER: auCDtect: CD records authenticity detector, version 0.8.2
Copyright (c) 2004 Oleg Berngardt. All rights reserved.
Copyright (c) 2004 Alexander Djourik. All rights reserved.

FILE: John Lennon - The Gold Collection [CD1].flac
  Size: 515479150 Hash: 00C5A36C2DD118D94564357BA0E0656E Accuracy: -m0
  Conclusion: CDDA 100%
  Signature: 6538E4B60CAD705B8A963B9BBACFB0D67A4B15F3

Продолжительность: 01:17:03

01. Mind Games (4:09)
02. New York City (4:27)
03. Nobody Told Me (3:31)
04. Oh Yoko! (4:14)
05. Sisters, O Sisters (3:44)
06. Tight A$ (3:33)
07. Well Well Well (5:56)
08. We're All Water (5:15)
09. What You Got (3:06)
10. How Do You Sleep? (5:31)
11. I'm Moving On (2:19)
12. John Sinclair (3:23)
13. Jealous Guy (4:11)
14. Listen The Snow Is Falling (3:05)
15. Gimme Some Truth (3:12)
16. Going Down On Love (3:53)
17. Happy Xmas (War Is Over) (3:32)
18. Woman Is The Nigger Of The World (5:13)
19. You Can't Catch Me (4:49)
Код:
Код:
REM GENRE Rock
REM DATE 2012
REM DISCID 0C121613
REM COMMENT "ExactAudioCopy v1.0b1"
PERFORMER "John Lennon"
TITLE "The Gold Collection [CD2]"
FILE "John Lennon - The Gold Collection [CD2].flac" WAVE
  TRACK 01 AUDIO
    TITLE "Mind Games"
    PERFORMER "John Lennon"
    INDEX 01 00:00:00
  TRACK 02 AUDIO
    TITLE "New York City"
    PERFORMER "John Lennon"
    INDEX 01 04:09:17
  TRACK 03 AUDIO
    TITLE "Nobody Told Me"
    PERFORMER "John Lennon"
    INDEX 01 08:36:67
  TRACK 04 AUDIO
    TITLE "Oh Yoko!"
    PERFORMER "John Lennon"
    INDEX 01 12:08:23
  TRACK 05 AUDIO
    TITLE "Sisters, O Sisters"
    PERFORMER "John Lennon"
    INDEX 01 16:22:40
  TRACK 06 AUDIO
    TITLE "Tight A$"
    PERFORMER "John Lennon"
    INDEX 01 20:07:14
  TRACK 07 AUDIO
    TITLE "Well Well Well"
    PERFORMER "John Lennon"
    INDEX 01 23:41:00
  TRACK 08 AUDIO
    TITLE "We're All Water"
    PERFORMER "John Lennon"
    INDEX 01 29:37:37
  TRACK 09 AUDIO
    TITLE "What You Got"
    PERFORMER "John Lennon"
    INDEX 01 34:53:03
  TRACK 10 AUDIO
    TITLE "How Do You Sleep?"
    PERFORMER "John Lennon"
    INDEX 01 37:59:19
  TRACK 11 AUDIO
    TITLE "I'm Moving On"
    PERFORMER "John Lennon"
    INDEX 01 43:30:57
  TRACK 12 AUDIO
    TITLE "John Sinclair"
    PERFORMER "John Lennon"
    INDEX 01 45:50:22
  TRACK 13 AUDIO
    TITLE "Jealous Guy"
    PERFORMER "John Lennon"
    INDEX 01 49:13:62
  TRACK 14 AUDIO
    TITLE "Listen The Snow Is Falling"
    PERFORMER "John Lennon"
    INDEX 01 53:25:25
  TRACK 15 AUDIO
    TITLE "Gimme Some Truth"
    PERFORMER "John Lennon"
    INDEX 01 56:30:36
  TRACK 16 AUDIO
    TITLE "Going Down On Love"
    PERFORMER "John Lennon"
    INDEX 01 59:42:50
  TRACK 17 AUDIO
    TITLE "Happy Xmas (War Is Over)"
    PERFORMER "John Lennon"
    INDEX 01 63:35:57
  TRACK 18 AUDIO
    TITLE "Woman Is The Nigger Of The World"
    PERFORMER "John Lennon"
    INDEX 01 67:08:00
  TRACK 19 AUDIO
    TITLE "You Can't Catch Me"
    PERFORMER "John Lennon"
    INDEX 01 72:21:40

Код:
Код:
Exact Audio Copy V1.0 beta 1 from 15. November 2010

EAC extraction logfile from 1. June 2012, 18:09

John Lennon / The Gold Collection [CD2]

Used drive  : ATAPI   iHAP122   W   Adapter: 1  ID: 0

Read mode               : Secure
Utilize accurate stream : Yes
Defeat audio cache      : Yes
Make use of C2 pointers : No

Read offset correction                      : 6
Overread into Lead-In and Lead-Out          : No
Fill up missing offset samples with silence : Yes
Delete leading and trailing silent blocks   : No
Null samples used in CRC calculations       : Yes
Used interface                              : Native Win32 interface for Win NT & 2000

Used output format : Internal WAV Routines
Sample format      : 44.100 Hz; 16 Bit; Stereo

TOC of the extracted CD

     Track |   Start  |  Length  | Start sector | End sector
    ---------------------------------------------------------
        1  |  0:00.00 |  4:09.17 |         0    |    18691
        2  |  4:09.17 |  4:27.50 |     18692    |    38766
        3  |  8:36.67 |  3:31.31 |     38767    |    54622
        4  | 12:08.23 |  4:14.17 |     54623    |    73689
        5  | 16:22.40 |  3:44.49 |     73690    |    90538
        6  | 20:07.14 |  3:33.61 |     90539    |   106574
        7  | 23:41.00 |  5:56.37 |    106575    |   133311
        8  | 29:37.37 |  5:15.41 |    133312    |   156977
        9  | 34:53.03 |  3:06.16 |    156978    |   170943
       10  | 37:59.19 |  5:31.38 |    170944    |   195806
       11  | 43:30.57 |  2:19.40 |    195807    |   206271
       12  | 45:50.22 |  3:23.40 |    206272    |   221536
       13  | 49:13.62 |  4:11.38 |    221537    |   240399
       14  | 53:25.25 |  3:05.11 |    240400    |   254285
       15  | 56:30.36 |  3:12.14 |    254286    |   268699
       16  | 59:42.50 |  3:53.07 |    268700    |   286181
       17  | 63:35.57 |  3:32.18 |    286182    |   302099
       18  | 67:08.00 |  5:13.40 |    302100    |   325614
       19  | 72:21.40 |  4:49.32 |    325615    |   347321

Range status and errors

Selected range

     Filename C:\MusicBox\John Lennon - The Gold Collection [CD2].wav

     Peak level 100.0 %
     Extraction speed 0.6 X
     Range quality 99.9 %
     Copy CRC 73A9EC16
     Copy OK

No errors occurred

End of status report

Код:
Код:
-----------------------

DON'T MODIFY THIS FILE

-----------------------

PERFORMER: auCDtect Task Manager, ver. 1.5.1RC6 build 1.5.1.7
Copyright (c) 2008-2010 y-soft. All rights reserved
http:/y-soft.org

ANALYZER: auCDtect: CD records authenticity detector, version 0.8.2
Copyright (c) 2004 Oleg Berngardt. All rights reserved.
Copyright (c) 2004 Alexander Djourik. All rights reserved.

FILE: John Lennon - The Gold Collection [CD2].flac
  Size: 511920742 Hash: DA6D79AE0ED060CC36291617E197BE1F Accuracy: -m0
  Conclusion: CDDA 100%
  Signature: 9252325D3B5EF495A1A9F6CA3D42016D94ABAB5B

Продолжительность: 01:02:30

01. Bless You (4:37)
02. #9 Dream (4:43)
03. Dear Yoko (2:31)
04. Working Class Hero (3:46)
05. Old Dirt Road (4:08)
06. Intuition (3:06)
07. Look At Me (2:50)
08. Borrowed Time (4:28)
09. Do The Oz (3:07)
10. God (4:05)
11. Hard Times Are Over (3:16)
12. O'Sanity (1:03)
13. Instant Karma! (3:17)
14. Bring On The Lucie (Freda People) (4:10)
15. Only People (3:19)
16. I Know (3:47)
17. Whatever Gets You Thru The Night (3:00)
18. Power To The People (3:17)
Код:
Код:
REM GENRE Rock
REM DATE 2012
REM DISCID E40EAB12
REM COMMENT "ExactAudioCopy v1.0b1"
PERFORMER "John Lennon"
TITLE "The Gold Collection [CD3]"
FILE "John Lennon - The Gold Collection [CD3].flac" WAVE
  TRACK 01 AUDIO
    TITLE "Bless You"
    PERFORMER "John Lennon"
    INDEX 01 00:00:00
  TRACK 02 AUDIO
    TITLE "#9 Dream"
    PERFORMER "John Lennon"
    INDEX 01 04:37:14
  TRACK 03 AUDIO
    TITLE "Dear Yoko"
    PERFORMER "John Lennon"
    INDEX 01 09:20:25
  TRACK 04 AUDIO
    TITLE "Working Class Hero"
    PERFORMER "John Lennon"
    INDEX 01 11:51:35
  TRACK 05 AUDIO
    TITLE "Old Dirt Road"
    PERFORMER "John Lennon"
    INDEX 01 15:38:06
  TRACK 06 AUDIO
    TITLE "Intuition"
    PERFORMER "John Lennon"
    INDEX 01 19:46:37
  TRACK 07 AUDIO
    TITLE "Look At Me"
    PERFORMER "John Lennon"
    INDEX 01 22:52:50
  TRACK 08 AUDIO
    TITLE "Borrowed Time"
    PERFORMER "John Lennon"
    INDEX 01 25:43:35
  TRACK 09 AUDIO
    TITLE "Do The Oz"
    PERFORMER "John Lennon"
    INDEX 01 30:11:37
  TRACK 10 AUDIO
    TITLE "God"
    PERFORMER "John Lennon"
    INDEX 01 33:18:41
  TRACK 11 AUDIO
    TITLE "Hard Times Are Over"
    PERFORMER "John Lennon"
    INDEX 01 37:24:05
  TRACK 12 AUDIO
    TITLE "O'Sanity"
    PERFORMER "John Lennon"
    INDEX 01 40:40:12
  TRACK 13 AUDIO
    TITLE "Instant Karma!"
    PERFORMER "John Lennon"
    INDEX 01 41:43:47
  TRACK 14 AUDIO
    TITLE "Bring On The Lucie (Freda People)"
    PERFORMER "John Lennon"
    INDEX 01 45:01:16
  TRACK 15 AUDIO
    TITLE "Only People"
    PERFORMER "John Lennon"
    INDEX 01 49:11:48
  TRACK 16 AUDIO
    TITLE "I Know"
    PERFORMER "John Lennon"
    INDEX 01 52:30:60
  TRACK 17 AUDIO
    TITLE "Whatever Gets You Thru The Night"
    PERFORMER "John Lennon"
    INDEX 01 56:18:18
  TRACK 18 AUDIO
    TITLE "Power To The People"
    PERFORMER "John Lennon"
    INDEX 01 59:18:24

Код:
Код:
Exact Audio Copy V1.0 beta 1 from 15. November 2010

EAC extraction logfile from 1. June 2012, 18:24

John Lennon / The Gold Collection [CD3]

Used drive  : ATAPI   iHAP122   W   Adapter: 1  ID: 0

Read mode               : Secure
Utilize accurate stream : Yes
Defeat audio cache      : Yes
Make use of C2 pointers : No

Read offset correction                      : 6
Overread into Lead-In and Lead-Out          : No
Fill up missing offset samples with silence : Yes
Delete leading and trailing silent blocks   : No
Null samples used in CRC calculations       : Yes
Used interface                              : Native Win32 interface for Win NT & 2000

Used output format : Internal WAV Routines
Sample format      : 44.100 Hz; 16 Bit; Stereo

TOC of the extracted CD

     Track |   Start  |  Length  | Start sector | End sector
    ---------------------------------------------------------
        1  |  0:00.00 |  4:37.14 |         0    |    20788
        2  |  4:37.14 |  4:43.11 |     20789    |    42024
        3  |  9:20.25 |  2:31.10 |     42025    |    53359
        4  | 11:51.35 |  3:46.46 |     53360    |    70355
        5  | 15:38.06 |  4:08.31 |     70356    |    88986
        6  | 19:46.37 |  3:06.13 |     88987    |   102949
        7  | 22:52.50 |  2:50.60 |    102950    |   115759
        8  | 25:43.35 |  4:28.02 |    115760    |   135861
        9  | 30:11.37 |  3:07.04 |    135862    |   149890
       10  | 33:18.41 |  4:05.39 |    149891    |   168304
       11  | 37:24.05 |  3:16.07 |    168305    |   183011
       12  | 40:40.12 |  1:03.35 |    183012    |   187771
       13  | 41:43.47 |  3:17.44 |    187772    |   202590
       14  | 45:01.16 |  4:10.32 |    202591    |   221372
       15  | 49:11.48 |  3:19.12 |    221373    |   236309
       16  | 52:30.60 |  3:47.33 |    236310    |   253367
       17  | 56:18.18 |  3:00.06 |    253368    |   266873
       18  | 59:18.24 |  3:17.03 |    266874    |   281651

Range status and errors

Selected range

     Filename C:\MusicBox\John Lennon - The Gold Collection [CD3].wav

     Peak level 100.0 %
     Extraction speed 0.4 X
     Range quality 100.0 %
     Copy CRC 8C9C2CC5
     Copy OK

No errors occurred

End of status report

Код:
Код:
-----------------------

DON'T MODIFY THIS FILE

-----------------------

PERFORMER: auCDtect Task Manager, ver. 1.5.1RC6 build 1.5.1.7
Copyright (c) 2008-2010 y-soft. All rights reserved
http:/y-soft.org

ANALYZER: auCDtect: CD records authenticity detector, version 0.8.2
Copyright (c) 2004 Oleg Berngardt. All rights reserved.
Copyright (c) 2004 Alexander Djourik. All rights reserved.

FILE: John Lennon - The Gold Collection [CD3].flac
  Size: 399658009 Hash: 767167E996F44B69D47BD1F8F679F915 Accuracy: -m0
  Conclusion: CDDA 100%
  Signature: 06912FC541AD70375A5188D0A25B80B8F69B360F

#777
Продолжительность: 01:18:44

01. Wino Junko (5:20)
02. Beautiful Night (5:08)
03. Deliver Your Children (4:17)
04. Heart Of The Country (2:23)
05. Hope Of Deliverance (3:22)
06. If You Wanna (4:37)
07. Mrs Vandebilt (4:41)
08. San Ferry Anne (2:07)
09. Nineteen Hundred And Eighty Five (5:36)
10. No Words (2:38)
11. Monkberry Moon Delight (5:22)
12. The World Tonight (4:07)
13. Simple As That (4:17)
14. Daytime Nightime Suffering (3:23)
15. My Brave Face (3:18)
16. No More Lonely Nights (4:40)
17. Silly Love Songs (5:52)
18. Bip Bop (4:09)
19. Biker Like An Icon (3:27)
Код:
Код:
REM GENRE Rock
REM DATE 2012
REM DISCID 1F127F13
REM COMMENT "ExactAudioCopy v1.0b1"
PERFORMER "Paul McCartney"
TITLE "The Gold Collection [CD1]"
FILE "Paul McCartney - The Gold Collection [CD1].flac" WAVE
  TRACK 01 AUDIO
    TITLE "Wino Junko"
    PERFORMER "Paul McCartney"
    INDEX 01 00:00:00
  TRACK 02 AUDIO
    TITLE "Beautiful Night"
    PERFORMER "Paul McCartney"
    INDEX 01 05:20:70
  TRACK 03 AUDIO
    TITLE "Deliver Your Children"
    PERFORMER "Paul McCartney"
    INDEX 01 10:29:20
  TRACK 04 AUDIO
    TITLE "Heart Of The Country"
    PERFORMER "Paul McCartney"
    INDEX 01 14:47:07
  TRACK 05 AUDIO
    TITLE "Hope Of Deliverance"
    PERFORMER "Paul McCartney"
    INDEX 01 17:10:72
  TRACK 06 AUDIO
    TITLE "If You Wanna"
    PERFORMER "Paul McCartney"
    INDEX 01 20:33:55
  TRACK 07 AUDIO
    TITLE "Mrs Vandebilt"
    PERFORMER "Paul McCartney"
    INDEX 01 25:10:61
  TRACK 08 AUDIO
    TITLE "San Ferry Anne"
    PERFORMER "Paul McCartney"
    INDEX 01 29:52:01
  TRACK 09 AUDIO
    TITLE "Nineteen Hundred And Eighty Five"
    PERFORMER "Paul McCartney"
    INDEX 01 31:59:71
  TRACK 10 AUDIO
    TITLE "No Words"
    PERFORMER "Paul McCartney"
    INDEX 01 37:36:26
  TRACK 11 AUDIO
    TITLE "Monkberry Moon Delight"
    PERFORMER "Paul McCartney"
    INDEX 01 40:14:29
  TRACK 12 AUDIO
    TITLE "The World Tonight"
    PERFORMER "Paul McCartney"
    INDEX 01 45:37:28
  TRACK 13 AUDIO
    TITLE "Simple As That"
    PERFORMER "Paul McCartney"
    INDEX 01 49:45:26
  TRACK 14 AUDIO
    TITLE "Daytime Nightime Suffering"
    PERFORMER "Paul McCartney"
    INDEX 01 54:02:41
  TRACK 15 AUDIO
    TITLE "My Brave Face"
    PERFORMER "Paul McCartney"
    INDEX 01 57:25:61
  TRACK 16 AUDIO
    TITLE "No More Lonely Nights"
    PERFORMER "Paul McCartney"
    INDEX 01 60:44:28
  TRACK 17 AUDIO
    TITLE "Silly Love Songs"
    PERFORMER "Paul McCartney"
    INDEX 01 65:25:13
  TRACK 18 AUDIO
    TITLE "Bip Bop"
    PERFORMER "Paul McCartney"
    INDEX 01 71:18:10
  TRACK 19 AUDIO
    TITLE "Biker Like An Icon"
    PERFORMER "Paul McCartney"
    INDEX 01 75:27:68

Код:
Код:
Exact Audio Copy V1.0 beta 1 from 15. November 2010

EAC extraction logfile from 1. June 2012, 8:43

Paul McCartney / The Gold Collection [CD1]

Used drive  : ATAPI   iHAP122   W   Adapter: 1  ID: 0

Read mode               : Secure
Utilize accurate stream : Yes
Defeat audio cache      : Yes
Make use of C2 pointers : No

Read offset correction                      : 6
Overread into Lead-In and Lead-Out          : No
Fill up missing offset samples with silence : Yes
Delete leading and trailing silent blocks   : No
Null samples used in CRC calculations       : Yes
Used interface                              : Native Win32 interface for Win NT & 2000

Used output format : Internal WAV Routines
Sample format      : 44.100 Hz; 16 Bit; Stereo

TOC of the extracted CD

     Track |   Start  |  Length  | Start sector | End sector
    ---------------------------------------------------------
        1  |  0:00.00 |  5:20.70 |         0    |    24069
        2  |  5:20.70 |  5:08.25 |     24070    |    47194
        3  | 10:29.20 |  4:17.62 |     47195    |    66531
        4  | 14:47.07 |  2:23.65 |     66532    |    77321
        5  | 17:10.72 |  3:22.58 |     77322    |    92529
        6  | 20:33.55 |  4:37.06 |     92530    |   113310
        7  | 25:10.61 |  4:41.15 |    113311    |   134400
        8  | 29:52.01 |  2:07.70 |    134401    |   143995
        9  | 31:59.71 |  5:36.30 |    143996    |   169225
       10  | 37:36.26 |  2:38.03 |    169226    |   181078
       11  | 40:14.29 |  5:22.74 |    181079    |   205302
       12  | 45:37.28 |  4:07.73 |    205303    |   223900
       13  | 49:45.26 |  4:17.15 |    223901    |   243190
       14  | 54:02.41 |  3:23.20 |    243191    |   258435
       15  | 57:25.61 |  3:18.42 |    258436    |   273327
       16  | 60:44.28 |  4:40.60 |    273328    |   294387
       17  | 65:25.13 |  5:52.72 |    294388    |   320859
       18  | 71:18.10 |  4:09.58 |    320860    |   339592
       19  | 75:27.68 |  3:27.20 |    339593    |   355137

Range status and errors

Selected range

     Filename C:\MusicBox\Paul McCartney - The Gold Collection [CD1].wav

     Peak level 100.0 %
     Extraction speed 0.4 X
     Range quality 99.9 %
     Copy CRC 5B064EAC
     Copy OK

No errors occurred

End of status report

Код:
Код:
-----------------------

DON'T MODIFY THIS FILE

-----------------------

PERFORMER: auCDtect Task Manager, ver. 1.5.1RC6 build 1.5.1.7
Copyright (c) 2008-2010 y-soft. All rights reserved
http:/y-soft.org

ANALYZER: auCDtect: CD records authenticity detector, version 0.8.2
Copyright (c) 2004 Oleg Berngardt. All rights reserved.
Copyright (c) 2004 Alexander Djourik. All rights reserved.

FILE: Paul McCartney - The Gold Collection [CD1].flac
  Size: 524593312 Hash: 3C6D73A62DB55A15D261CE2EF075D004 Accuracy: -m0
  Conclusion: CDDA 99%
  Signature: C2A17E975BD741380A62DCBD081A6E5098550059

Продолжительность: 01:18:18

01. Young Boy (3:56)
02. We Got Married (4:56)
03. Another Day (3:45)
04. Band On The Run (5:13)
05. Cafe On The Left Bank (3:26)
06. Let Me Roll It (4:49)
07. Letting Go (4:33)
08. Medicine Jar (3:37)
09. Call Me Back Again (4:58)
10. Getting Closer (3:23)
11. Jet (4:08)
12. Picasso's Last Words (Drink To Me) (5:52)
13. This One (4:10)
14. Winter Rose - Love Awake (4:59)
15. Again And Again And Again (3:34)
16. Listen To What The Man Said (4:01)
17. With A Little Luck (5:46)
18. You Want Her Too (3:12)
Код:
Код:
REM GENRE Rock
REM DATE 2012
REM DISCID F1126012
REM COMMENT "ExactAudioCopy v1.0b1"
PERFORMER "Paul McCartney"
TITLE "The Gold Collection [CD2]"
FILE "Paul McCartney - The Gold Collection [CD2].flac" WAVE
  TRACK 01 AUDIO
    TITLE "Young Boy"
    PERFORMER "Paul McCartney"
    INDEX 01 00:00:00
  TRACK 02 AUDIO
    TITLE "We Got Married"
    PERFORMER "Paul McCartney"
    INDEX 01 03:56:27
  TRACK 03 AUDIO
    TITLE "Another Day"
    PERFORMER "Paul McCartney"
    INDEX 01 08:53:22
  TRACK 04 AUDIO
    TITLE "Band On The Run"
    PERFORMER "Paul McCartney"
    INDEX 01 12:38:36
  TRACK 05 AUDIO
    TITLE "Cafe On The Left Bank"
    PERFORMER "Paul McCartney"
    INDEX 01 17:51:56
  TRACK 06 AUDIO
    TITLE "Let Me Roll It"
    PERFORMER "Paul McCartney"
    INDEX 01 21:18:21
  TRACK 07 AUDIO
    TITLE "Letting Go"
    PERFORMER "Paul McCartney"
    INDEX 01 26:07:68
  TRACK 08 AUDIO
    TITLE "Medicine Jar"
    PERFORMER "Paul McCartney"
    INDEX 01 30:41:03
  TRACK 09 AUDIO
    TITLE "Call Me Back Again"
    PERFORMER "Paul McCartney"
    INDEX 01 34:18:15
  TRACK 10 AUDIO
    TITLE "Getting Closer"
    PERFORMER "Paul McCartney"
    INDEX 01 39:17:10
  TRACK 11 AUDIO
    TITLE "Jet"
    PERFORMER "Paul McCartney"
    INDEX 00 42:40:17
    INDEX 01 42:40:18
  TRACK 12 AUDIO
    TITLE "Picasso's Last Words (Drink To Me)"
    PERFORMER "Paul McCartney"
    INDEX 01 46:48:65
  TRACK 13 AUDIO
    TITLE "This One"
    PERFORMER "Paul McCartney"
    INDEX 01 52:40:67
  TRACK 14 AUDIO
    TITLE "Winter Rose - Love Awake"
    PERFORMER "Paul McCartney"
    INDEX 01 56:51:07
  TRACK 15 AUDIO
    TITLE "Again And Again And Again"
    PERFORMER "Paul McCartney"
    INDEX 01 61:50:35
  TRACK 16 AUDIO
    TITLE "Listen To What The Man Said"
    PERFORMER "Paul McCartney"
    INDEX 01 65:24:40
  TRACK 17 AUDIO
    TITLE "With A Little Luck"
    PERFORMER "Paul McCartney"
    INDEX 01 69:25:73
  TRACK 18 AUDIO
    TITLE "You Want Her Too"
    PERFORMER "Paul McCartney"
    INDEX 01 75:12:01

Код:
Код:
Exact Audio Copy V1.0 beta 1 from 15. November 2010

EAC extraction logfile from 1. June 2012, 9:09

Paul McCartney / The Gold Collection [CD2]

Used drive  : ATAPI   iHAP122   W   Adapter: 1  ID: 0

Read mode               : Secure
Utilize accurate stream : Yes
Defeat audio cache      : Yes
Make use of C2 pointers : No

Read offset correction                      : 6
Overread into Lead-In and Lead-Out          : No
Fill up missing offset samples with silence : Yes
Delete leading and trailing silent blocks   : No
Null samples used in CRC calculations       : Yes
Used interface                              : Native Win32 interface for Win NT & 2000

Used output format : Internal WAV Routines
Sample format      : 44.100 Hz; 16 Bit; Stereo

TOC of the extracted CD

     Track |   Start  |  Length  | Start sector | End sector
    ---------------------------------------------------------
        1  |  0:00.00 |  3:56.27 |         0    |    17726
        2  |  3:56.27 |  4:56.70 |     17727    |    39996
        3  |  8:53.22 |  3:45.14 |     39997    |    56885
        4  | 12:38.36 |  5:13.20 |     56886    |    80380
        5  | 17:51.56 |  3:26.40 |     80381    |    95870
        6  | 21:18.21 |  4:49.47 |     95871    |   117592
        7  | 26:07.68 |  4:33.10 |    117593    |   138077
        8  | 30:41.03 |  3:37.12 |    138078    |   154364
        9  | 34:18.15 |  4:58.70 |    154365    |   176784
       10  | 39:17.10 |  3:23.08 |    176785    |   192017
       11  | 42:40.18 |  4:08.47 |    192018    |   210664
       12  | 46:48.65 |  5:52.02 |    210665    |   237066
       13  | 52:40.67 |  4:10.15 |    237067    |   255831
       14  | 56:51.07 |  4:59.28 |    255832    |   278284
       15  | 61:50.35 |  3:34.05 |    278285    |   294339
       16  | 65:24.40 |  4:01.33 |    294340    |   312447
       17  | 69:25.73 |  5:46.03 |    312448    |   338400
       18  | 75:12.01 |  3:12.45 |    338401    |   352845

Range status and errors

Selected range

     Filename C:\MusicBox\Paul McCartney - The Gold Collection [CD2].wav

     Peak level 100.0 %
     Extraction speed 0.2 X
     Range quality 99.8 %
     Copy CRC 6F8CE9EC
     Copy OK

No errors occurred

End of status report

Код:
Код:
-----------------------

DON'T MODIFY THIS FILE

-----------------------

PERFORMER: auCDtect Task Manager, ver. 1.5.1RC6 build 1.5.1.7
Copyright (c) 2008-2010 y-soft. All rights reserved
http:/y-soft.org

ANALYZER: auCDtect: CD records authenticity detector, version 0.8.2
Copyright (c) 2004 Oleg Berngardt. All rights reserved.
Copyright (c) 2004 Alexander Djourik. All rights reserved.

FILE: Paul McCartney - The Gold Collection [CD2].flac
  Size: 521324230 Hash: 58D26E280EE561F4F757FF545D2605B4 Accuracy: -m0
  Conclusion: CDDA 100%
  Signature: F07D50935680A7D5EEE2468D96269D4173E206B7

Продолжительность: 01:18:59

01. Twice In A Lifetime (3:02)
02. Famous Groupies (3:35)
03. Wild Life (6:41)
04. Heaven on a Sunday (4:28)
05. Hi, Hi, Hi (3:08)
06. It's Not True (5:53)
07. Must Do Something About It (3:43)
08. Press (4:42)
09. Pretty Little Head (5:13)
10. Promise To You Girl (3:11)
11. Put It There (2:08)
12. She's My Baby (3:06)
13. Take It Away (4:07)
14. Time To Hide (4:32)
15. Figure Of Eight (3:24)
16. Good Day Sunshine (2:33)
17. Flying To My Home (4:15)
18. Loveliest Thing (3:58)
19. One More Kiss (2:29)
20. Tough On A Tightrope (4:51)
Код:
Код:
REM GENRE Rock
REM DATE 2012
REM DISCID 1E128D14
REM COMMENT "ExactAudioCopy v1.0b1"
PERFORMER "Paul McCartney"
TITLE "The Gold Collection [CD3]"
FILE "Paul McCartney - The Gold Collection [CD3].flac" WAVE
  TRACK 01 AUDIO
    TITLE "Twice In A Lifetime"
    PERFORMER "Paul McCartney"
    INDEX 01 00:00:00
  TRACK 02 AUDIO
    TITLE "Famous Groupies"
    PERFORMER "Paul McCartney"
    INDEX 01 03:02:28
  TRACK 03 AUDIO
    TITLE "Wild Life"
    PERFORMER "Paul McCartney"
    INDEX 01 06:37:68
  TRACK 04 AUDIO
    TITLE "Heaven on a Sunday"
    PERFORMER "Paul McCartney"
    INDEX 01 13:19:53
  TRACK 05 AUDIO
    TITLE "Hi, Hi, Hi"
    PERFORMER "Paul McCartney"
    INDEX 01 17:48:45
  TRACK 06 AUDIO
    TITLE "It's Not True"
    PERFORMER "Paul McCartney"
    INDEX 01 20:56:73
  TRACK 07 AUDIO
    TITLE "Must Do Something About It"
    PERFORMER "Paul McCartney"
    INDEX 01 26:49:73
  TRACK 08 AUDIO
    TITLE "Press"
    PERFORMER "Paul McCartney"
    INDEX 01 30:33:46
  TRACK 09 AUDIO
    TITLE "Pretty Little Head"
    PERFORMER "Paul McCartney"
    INDEX 01 35:16:36
  TRACK 10 AUDIO
    TITLE "Promise To You Girl"
    PERFORMER "Paul McCartney"
    INDEX 01 40:30:13
  TRACK 11 AUDIO
    TITLE "Put It There"
    PERFORMER "Paul McCartney"
    INDEX 01 43:41:54
  TRACK 12 AUDIO
    TITLE "She's My Baby"
    PERFORMER "Paul McCartney"
    INDEX 01 45:50:49
  TRACK 13 AUDIO
    TITLE "Take It Away"
    PERFORMER "Paul McCartney"
    INDEX 01 48:56:74
  TRACK 14 AUDIO
    TITLE "Time To Hide"
    PERFORMER "Paul McCartney"
    INDEX 01 53:04:30
  TRACK 15 AUDIO
    TITLE "Figure Of Eight"
    PERFORMER "Paul McCartney"
    INDEX 01 57:36:32
  TRACK 16 AUDIO
    TITLE "Good Day Sunshine"
    PERFORMER "Paul McCartney"
    INDEX 01 61:01:30
  TRACK 17 AUDIO
    TITLE "Flying To My Home"
    PERFORMER "Paul McCartney"
    INDEX 01 63:34:48
  TRACK 18 AUDIO
    TITLE "Loveliest Thing"
    PERFORMER "Paul McCartney"
    INDEX 01 67:49:73
  TRACK 19 AUDIO
    TITLE "One More Kiss"
    PERFORMER "Paul McCartney"
    INDEX 01 71:48:48
  TRACK 20 AUDIO
    TITLE "Tough On A Tightrope"
    PERFORMER "Paul McCartney"
    INDEX 01 74:17:68

Код:
Код:
Exact Audio Copy V1.0 beta 1 from 15. November 2010

EAC extraction logfile from 1. June 2012, 9:23

Paul McCartney / The Gold Collection [CD3]

Used drive  : ATAPI   iHAP122   W   Adapter: 1  ID: 0

Read mode               : Secure
Utilize accurate stream : Yes
Defeat audio cache      : Yes
Make use of C2 pointers : No

Read offset correction                      : 6
Overread into Lead-In and Lead-Out          : No
Fill up missing offset samples with silence : Yes
Delete leading and trailing silent blocks   : No
Null samples used in CRC calculations       : Yes
Used interface                              : Native Win32 interface for Win NT & 2000

Used output format : Internal WAV Routines
Sample format      : 44.100 Hz; 16 Bit; Stereo

TOC of the extracted CD

     Track |   Start  |  Length  | Start sector | End sector
    ---------------------------------------------------------
        1  |  0:00.00 |  3:02.28 |         0    |    13677
        2  |  3:02.28 |  3:35.40 |     13678    |    29842
        3  |  6:37.68 |  6:41.60 |     29843    |    59977
        4  | 13:19.53 |  4:28.67 |     59978    |    80144
        5  | 17:48.45 |  3:08.28 |     80145    |    94272
        6  | 20:56.73 |  5:53.00 |     94273    |   120747
        7  | 26:49.73 |  3:43.48 |    120748    |   137520
        8  | 30:33.46 |  4:42.65 |    137521    |   158735
        9  | 35:16.36 |  5:13.52 |    158736    |   182262
       10  | 40:30.13 |  3:11.41 |    182263    |   196628
       11  | 43:41.54 |  2:08.70 |    196629    |   206298
       12  | 45:50.49 |  3:06.25 |    206299    |   220273
       13  | 48:56.74 |  4:07.31 |    220274    |   238829
       14  | 53:04.30 |  4:32.02 |    238830    |   259231
       15  | 57:36.32 |  3:24.73 |    259232    |   274604
       16  | 61:01.30 |  2:33.18 |    274605    |   286097
       17  | 63:34.48 |  4:15.25 |    286098    |   305247
       18  | 67:49.73 |  3:58.50 |    305248    |   323147
       19  | 71:48.48 |  2:29.20 |    323148    |   334342
       20  | 74:17.68 |  4:51.55 |    334343    |   356222

Range status and errors

Selected range

     Filename C:\MusicBox\Paul McCartney - The Gold Collection [CD3].wav

     Peak level 100.0 %
     Extraction speed 0.5 X
     Range quality 99.9 %
     Copy CRC F9AFBA28
     Copy OK

No errors occurred

End of status report

Код:
Код:
-----------------------

DON'T MODIFY THIS FILE

-----------------------

PERFORMER: auCDtect Task Manager, ver. 1.5.1RC6 build 1.5.1.7
Copyright (c) 2008-2010 y-soft. All rights reserved
http:/y-soft.org

ANALYZER: auCDtect: CD records authenticity detector, version 0.8.2
Copyright (c) 2004 Oleg Berngardt. All rights reserved.
Copyright (c) 2004 Alexander Djourik. All rights reserved.

FILE: Paul McCartney - The Gold Collection [CD3].flac
  Size: 512023866 Hash: 0255B5F62DF49628FC2BD1D82E955104 Accuracy: -m0
  Conclusion: CDDA 100%
  Signature: B80D668B9C1FC8AD0032918BA265A86A967B507A

#777
Продолжительность: 01:18:33

01. Free Drinks (4:46)
02. I Think Therefore I Rock N Roll (3:25)
03. Who's Your Daddy (2:29)
04. Fill In The Blanks (3:14)
05. Peace Dream (3:34)
06. Think About You (3:40)
07. Memphis In Your Mind (3:13)
08. Weight Of The World (3:54)
09. Trippin' On Own Tears (3:31)
10. For Love (3:49)
11. Give It A Try (3:26)
12. Missouri Loves Company (3:32)
13. If It's Love That You Want (3:06)
14. Liverpool 8 (4:49)
15. Snookeroo (3:24)
16. Wrack My Brain (2:21)
17. Never Without You (5:23)
18. The Other Side Of Liverpool (3:23)
19. Give Me Back The Beat (3:54)
20. Gone Are The Days (2:49)
21. Wrong All The Time (3:39)
22. In My Car (3:12)
Код:
Код:
REM GENRE Rock
REM DATE 2012
REM DISCID 2D127416
REM COMMENT "ExactAudioCopy v1.0b1"
PERFORMER "Ringo Starr"
TITLE "The Gold Collection [CD1]"
FILE "Ringo Starr - The Gold Collection [CD1].flac" WAVE
  TRACK 01 AUDIO
    TITLE "Free Drinks"
    PERFORMER "Ringo Starr"
    INDEX 01 00:00:00
  TRACK 02 AUDIO
    TITLE "I Think Therefore I Rock N Roll"
    PERFORMER "Ringo Starr"
    INDEX 01 04:46:70
  TRACK 03 AUDIO
    TITLE "Who's Your Daddy"
    PERFORMER "Ringo Starr"
    INDEX 01 08:12:07
  TRACK 04 AUDIO
    TITLE "Fill In The Blanks"
    PERFORMER "Ringo Starr"
    INDEX 01 10:41:23
  TRACK 05 AUDIO
    TITLE "Peace Dream"
    PERFORMER "Ringo Starr"
    INDEX 01 13:55:52
  TRACK 06 AUDIO
    TITLE "Think About You"
    PERFORMER "Ringo Starr"
    INDEX 01 17:30:47
  TRACK 07 AUDIO
    TITLE "Memphis In Your Mind"
    PERFORMER "Ringo Starr"
    INDEX 01 21:10:56
  TRACK 08 AUDIO
    TITLE "Weight Of The World"
    PERFORMER "Ringo Starr"
    INDEX 01 24:24:33
  TRACK 09 AUDIO
    TITLE "Trippin' On Own Tears"
    PERFORMER "Ringo Starr"
    INDEX 01 28:18:70
  TRACK 10 AUDIO
    TITLE "For Love"
    PERFORMER "Ringo Starr"
    INDEX 01 31:50:39
  TRACK 11 AUDIO
    TITLE "Give It A Try"
    PERFORMER "Ringo Starr"
    INDEX 01 35:39:57
  TRACK 12 AUDIO
    TITLE "Missouri Loves Company"
    PERFORMER "Ringo Starr"
    INDEX 01 39:06:20
  TRACK 13 AUDIO
    TITLE "If It's Love That You Want"
    PERFORMER "Ringo Starr"
    INDEX 01 42:39:19
  TRACK 14 AUDIO
    TITLE "Liverpool 8"
    PERFORMER "Ringo Starr"
    INDEX 01 45:45:33
  TRACK 15 AUDIO
    TITLE "Snookeroo"
    PERFORMER "Ringo Starr"
    INDEX 01 50:35:07
  TRACK 16 AUDIO
    TITLE "Wrack My Brain"
    PERFORMER "Ringo Starr"
    INDEX 01 53:59:21
  TRACK 17 AUDIO
    TITLE "Never Without You"
    PERFORMER "Ringo Starr"
    INDEX 01 56:20:71
  TRACK 18 AUDIO
    TITLE "The Other Side Of Liverpool"
    PERFORMER "Ringo Starr"
    INDEX 01 61:44:15
  TRACK 19 AUDIO
    TITLE "Give Me Back The Beat"
    PERFORMER "Ringo Starr"
    INDEX 01 65:07:61
  TRACK 20 AUDIO
    TITLE "Gone Are The Days"
    PERFORMER "Ringo Starr"
    INDEX 01 69:02:12
  TRACK 21 AUDIO
    TITLE "Wrong All The Time"
    PERFORMER "Ringo Starr"
    INDEX 01 71:51:67
  TRACK 22 AUDIO
    TITLE "In My Car"
    PERFORMER "Ringo Starr"
    INDEX 01 75:31:30

Код:
Код:
Exact Audio Copy V1.0 beta 1 from 15. November 2010

EAC extraction logfile from 31. May 2012, 17:33

Ringo Starr / The Gold Collection [CD1]

Used drive  : ATAPI   iHAP122   W   Adapter: 1  ID: 0

Read mode               : Secure
Utilize accurate stream : Yes
Defeat audio cache      : Yes
Make use of C2 pointers : No

Read offset correction                      : 6
Overread into Lead-In and Lead-Out          : No
Fill up missing offset samples with silence : Yes
Delete leading and trailing silent blocks   : No
Null samples used in CRC calculations       : Yes
Used interface                              : Native Win32 interface for Win NT & 2000

Used output format : Internal WAV Routines
Sample format      : 44.100 Hz; 16 Bit; Stereo

TOC of the extracted CD

     Track |   Start  |  Length  | Start sector | End sector
    ---------------------------------------------------------
        1  |  0:00.00 |  4:46.70 |         0    |    21519
        2  |  4:46.70 |  3:25.12 |     21520    |    36906
        3  |  8:12.07 |  2:29.16 |     36907    |    48097
        4  | 10:41.23 |  3:14.29 |     48098    |    62676
        5  | 13:55.52 |  3:34.70 |     62677    |    78796
        6  | 17:30.47 |  3:40.09 |     78797    |    95305
        7  | 21:10.56 |  3:13.52 |     95306    |   109832
        8  | 24:24.33 |  3:54.37 |    109833    |   127419
        9  | 28:18.70 |  3:31.44 |    127420    |   143288
       10  | 31:50.39 |  3:49.18 |    143289    |   160481
       11  | 35:39.57 |  3:26.38 |    160482    |   175969
       12  | 39:06.20 |  3:32.74 |    175970    |   191943
       13  | 42:39.19 |  3:06.14 |    191944    |   205907
       14  | 45:45.33 |  4:49.49 |    205908    |   227631
       15  | 50:35.07 |  3:24.14 |    227632    |   242945
       16  | 53:59.21 |  2:21.50 |    242946    |   253570
       17  | 56:20.71 |  5:23.19 |    253571    |   277814
       18  | 61:44.15 |  3:23.46 |    277815    |   293085
       19  | 65:07.61 |  3:54.26 |    293086    |   310661
       20  | 69:02.12 |  2:49.55 |    310662    |   323391
       21  | 71:51.67 |  3:39.38 |    323392    |   339854
       22  | 75:31.30 |  3:12.62 |    339855    |   354316

Range status and errors

Selected range

     Filename C:\MusicBox\Ringo Starr - The Gold Collection [CD1].wav

     Peak level 89.2 %
     Extraction speed 0.3 X
     Range quality 99.9 %
     Copy CRC 748BFC48
     Copy OK

No errors occurred

End of status report

Код:
Код:
-----------------------

DON'T MODIFY THIS FILE

-----------------------

PERFORMER: auCDtect Task Manager, ver. 1.5.1RC6 build 1.5.1.7
Copyright (c) 2008-2010 y-soft. All rights reserved
http:/y-soft.org

ANALYZER: auCDtect: CD records authenticity detector, version 0.8.2
Copyright (c) 2004 Oleg Berngardt. All rights reserved.
Copyright (c) 2004 Alexander Djourik. All rights reserved.

FILE: Ringo Starr - The Gold Collection [CD1].flac
  Size: 560094280 Hash: 43253303C9811039927C607B02288A49 Accuracy: -m0
  Conclusion: CDDA 100%
  Signature: 2C648C0DEFCFE5BD311E1B5800803A011E061AF6

Продолжительность: 01:18:24

01. Satisfied (3:19)
02. Y Not (3:49)
03. Hard To Be True (3:27)
04. Tuff Love (4:33)
05. Imagine Me There (3:55)
06. In A Heartbeat (4:29)
07. Now That She's Gone Away (3:02)
08. What Goes Around (5:50)
09. Back Off Boogaloo (3:19)
10. What Love Wants To Be (3:03)
11. Write One For Me (3:14)
12. Can't Do It Wrong (3:45)
13. Choose Love (3:07)
14. Everyone Wins (3:54)
15. Don't Know A Thing About Love (3:49)
16. Don't Go Where The Road Don't Go (3:20)
17. Eye To Eye (3:19)
18. Fading In, Fading Out (3:57)
19. Hey Baby (3:10)
20. Mystery Of The Night (4:05)
21. Photograph (3:58)
Код:
Код:
REM GENRE Rock
REM DATE 2012
REM DISCID 19126A15
REM COMMENT "ExactAudioCopy v1.0b1"
PERFORMER "Ringo Starr"
TITLE "The Gold Collection [CD2]"
FILE "Ringo Starr - The Gold Collection [CD2].flac" WAVE
  TRACK 01 AUDIO
    TITLE "Satisfied"
    PERFORMER "Ringo Starr"
    INDEX 01 00:00:00
  TRACK 02 AUDIO
    TITLE "Y Not"
    PERFORMER "Ringo Starr"
    INDEX 01 03:19:06
  TRACK 03 AUDIO
    TITLE "Hard To Be True"
    PERFORMER "Ringo Starr"
    INDEX 01 07:08:61
  TRACK 04 AUDIO
    TITLE "Tuff Love"
    PERFORMER "Ringo Starr"
    INDEX 01 10:36:38
  TRACK 05 AUDIO
    TITLE "Imagine Me There"
    PERFORMER "Ringo Starr"
    INDEX 01 15:09:61
  TRACK 06 AUDIO
    TITLE "In A Heartbeat"
    PERFORMER "Ringo Starr"
    INDEX 01 19:05:43
  TRACK 07 AUDIO
    TITLE "Now That She's Gone Away"
    PERFORMER "Ringo Starr"
    INDEX 01 23:34:69
  TRACK 08 AUDIO
    TITLE "What Goes Around"
    PERFORMER "Ringo Starr"
    INDEX 01 26:37:15
  TRACK 09 AUDIO
    TITLE "Back Off Boogaloo"
    PERFORMER "Ringo Starr"
    INDEX 01 32:27:54
  TRACK 10 AUDIO
    TITLE "What Love Wants To Be"
    PERFORMER "Ringo Starr"
    INDEX 01 35:47:43
  TRACK 11 AUDIO
    TITLE "Write One For Me"
    PERFORMER "Ringo Starr"
    INDEX 01 38:50:61
  TRACK 12 AUDIO
    TITLE "Can't Do It Wrong"
    PERFORMER "Ringo Starr"
    INDEX 01 42:05:32
  TRACK 13 AUDIO
    TITLE "Choose Love"
    PERFORMER "Ringo Starr"
    INDEX 01 45:50:38
  TRACK 14 AUDIO
    TITLE "Everyone Wins"
    PERFORMER "Ringo Starr"
    INDEX 01 48:58:22
  TRACK 15 AUDIO
    TITLE "Don't Know A Thing About Love"
    PERFORMER "Ringo Starr"
    INDEX 01 52:52:58
  TRACK 16 AUDIO
    TITLE "Don't Go Where The Road Don't Go"
    PERFORMER "Ringo Starr"
    INDEX 01 56:42:11
  TRACK 17 AUDIO
    TITLE "Eye To Eye"
    PERFORMER "Ringo Starr"
    INDEX 01 60:02:72
  TRACK 18 AUDIO
    TITLE "Fading In, Fading Out"
    PERFORMER "Ringo Starr"
    INDEX 01 63:22:21
  TRACK 19 AUDIO
    TITLE "Hey Baby"
    PERFORMER "Ringo Starr"
    INDEX 01 67:19:21
  TRACK 20 AUDIO
    TITLE "Mystery Of The Night"
    PERFORMER "Ringo Starr"
    INDEX 01 70:29:71
  TRACK 21 AUDIO
    TITLE "Photograph"
    PERFORMER "Ringo Starr"
    INDEX 01 74:35:41

Код:
Код:
Exact Audio Copy V1.0 beta 1 from 15. November 2010

EAC extraction logfile from 31. May 2012, 18:05

Ringo Starr / The Gold Collection [CD2]

Used drive  : ATAPI   iHAP122   W   Adapter: 1  ID: 0

Read mode               : Secure
Utilize accurate stream : Yes
Defeat audio cache      : Yes
Make use of C2 pointers : No

Read offset correction                      : 6
Overread into Lead-In and Lead-Out          : No
Fill up missing offset samples with silence : Yes
Delete leading and trailing silent blocks   : No
Null samples used in CRC calculations       : Yes
Used interface                              : Native Win32 interface for Win NT & 2000

Used output format : Internal WAV Routines
Sample format      : 44.100 Hz; 16 Bit; Stereo

TOC of the extracted CD

     Track |   Start  |  Length  | Start sector | End sector
    ---------------------------------------------------------
        1  |  0:00.00 |  3:19.06 |         0    |    14930
        2  |  3:19.06 |  3:49.55 |     14931    |    32160
        3  |  7:08.61 |  3:27.52 |     32161    |    47737
        4  | 10:36.38 |  4:33.23 |     47738    |    68235
        5  | 15:09.61 |  3:55.57 |     68236    |    85917
        6  | 19:05.43 |  4:29.26 |     85918    |   106118
        7  | 23:34.69 |  3:02.21 |    106119    |   119789
        8  | 26:37.15 |  5:50.39 |    119790    |   146078
        9  | 32:27.54 |  3:19.64 |    146079    |   161067
       10  | 35:47.43 |  3:03.18 |    161068    |   174810
       11  | 38:50.61 |  3:14.46 |    174811    |   189406
       12  | 42:05.32 |  3:45.06 |    189407    |   206287
       13  | 45:50.38 |  3:07.59 |    206288    |   220371
       14  | 48:58.22 |  3:54.36 |    220372    |   237957
       15  | 52:52.58 |  3:49.28 |    237958    |   255160
       16  | 56:42.11 |  3:20.61 |    255161    |   270221
       17  | 60:02.72 |  3:19.24 |    270222    |   285170
       18  | 63:22.21 |  3:57.00 |    285171    |   302945
       19  | 67:19.21 |  3:10.50 |    302946    |   317245
       20  | 70:29.71 |  4:05.45 |    317246    |   335665
       21  | 74:35.41 |  3:58.72 |    335666    |   353587

Range status and errors

Selected range

     Filename C:\MusicBox\Ringo Starr - The Gold Collection [CD2].wav

     Peak level 89.5 %
     Extraction speed 0.4 X
     Range quality 99.9 %
     Copy CRC CF0A4813
     Copy OK

No errors occurred

End of status report

Код:
Код:
-----------------------

DON'T MODIFY THIS FILE

-----------------------

PERFORMER: auCDtect Task Manager, ver. 1.5.1RC6 build 1.5.1.7
Copyright (c) 2008-2010 y-soft. All rights reserved
http:/y-soft.org

ANALYZER: auCDtect: CD records authenticity detector, version 0.8.2
Copyright (c) 2004 Oleg Berngardt. All rights reserved.
Copyright (c) 2004 Alexander Djourik. All rights reserved.

FILE: Ringo Starr - The Gold Collection [CD2].flac
  Size: 552242313 Hash: DBE625BCCE16D7D9307A8A8EFF16A032 Accuracy: -m0
  Conclusion: CDDA 100%
  Signature: F11D6CF6D2F69C3EDF80BC47315071C1627984C1

Продолжительность: 01:19:13

01. I Keep Forgettin' (4:20)
02. Oh My Lord (5:32)
03. I'm The Greatest (3:26)
04. You Belong To Me (2:09)
05. Only You (And You Alone) (3:24)
06. Don't Be Cruel (2:07)
07. I Don't Believe You (2:48)
08. Picture Show Line (4:17)
09. Runaways (4:50)
10. It Don't Come Easy (3:01)
11. You're Sixteen (You're Beautiful And You're Mine) (2:49)
12. Attention (3:19)
13. Brandy (4:08)
14. Dead Giveaway (4:27)
15. Everybody's In A Hurry But Me (2:33)
16. Fading In And Fading Out (3:58)
17. Golden Blunders (4:06)
18. Me And You (2:15)
19. No-No Song (2:31)
20. She's About A Mover (3:53)
21. Some People (3:18)
22. Goodnight Vienna (It's All Down To) (3:02)
23. Act Naturally (with Buck Owens) (3:00)
Код:
Код:
REM GENRE Rock
REM DATE 2012
REM DISCID 64129A17
REM COMMENT "ExactAudioCopy v1.0b1"
PERFORMER "Ringo Starr"
TITLE "The Gold Collection [CD3]"
FILE "Ringo Starr - The Gold Collection [CD3].flac" WAVE
  TRACK 01 AUDIO
    TITLE "I Keep Forgettin'"
    PERFORMER "Ringo Starr"
    INDEX 01 00:00:00
  TRACK 02 AUDIO
    TITLE "Oh My Lord"
    PERFORMER "Ringo Starr"
    INDEX 01 04:20:08
  TRACK 03 AUDIO
    TITLE "I'm The Greatest"
    PERFORMER "Ringo Starr"
    INDEX 01 09:52:42
  TRACK 04 AUDIO
    TITLE "You Belong To Me"
    PERFORMER "Ringo Starr"
    INDEX 01 13:18:43
  TRACK 05 AUDIO
    TITLE "Only You (And You Alone)"
    PERFORMER "Ringo Starr"
    INDEX 01 15:27:48
  TRACK 06 AUDIO
    TITLE "Don't Be Cruel"
    PERFORMER "Ringo Starr"
    INDEX 01 18:51:71
  TRACK 07 AUDIO
    TITLE "I Don't Believe You"
    PERFORMER "Ringo Starr"
    INDEX 01 20:59:48
  TRACK 08 AUDIO
    TITLE "Picture Show Line"
    PERFORMER "Ringo Starr"
    INDEX 01 23:47:58
  TRACK 09 AUDIO
    TITLE "Runaways"
    PERFORMER "Ringo Starr"
    INDEX 01 28:05:23
  TRACK 10 AUDIO
    TITLE "It Don't Come Easy"
    PERFORMER "Ringo Starr"
    INDEX 01 32:56:11
  TRACK 11 AUDIO
    TITLE "You're Sixteen (You're Beautiful And You're Mine)"
    PERFORMER "Ringo Starr"
    INDEX 01 35:58:03
  TRACK 12 AUDIO
    TITLE "Attention"
    PERFORMER "Ringo Starr"
    INDEX 01 38:47:61
  TRACK 13 AUDIO
    TITLE "Brandy"
    PERFORMER "Ringo Starr"
    INDEX 01 42:07:11
  TRACK 14 AUDIO
    TITLE "Dead Giveaway"
    PERFORMER "Ringo Starr"
    INDEX 01 46:15:31
  TRACK 15 AUDIO
    TITLE "Everybody's In A Hurry But Me"
    PERFORMER "Ringo Starr"
    INDEX 01 50:43:01
  TRACK 16 AUDIO
    TITLE "Fading In And Fading Out"
    PERFORMER "Ringo Starr"
    INDEX 01 53:16:48
  TRACK 17 AUDIO
    TITLE "Golden Blunders"
    PERFORMER "Ringo Starr"
    INDEX 01 57:15:25
  TRACK 18 AUDIO
    TITLE "Me And You"
    PERFORMER "Ringo Starr"
    INDEX 01 61:21:56
  TRACK 19 AUDIO
    TITLE "No-No Song"
    PERFORMER "Ringo Starr"
    INDEX 01 63:36:57
  TRACK 20 AUDIO
    TITLE "She's About A Mover"
    PERFORMER "Ringo Starr"
    INDEX 01 66:08:50
  TRACK 21 AUDIO
    TITLE "Some People"
    PERFORMER "Ringo Starr"
    INDEX 01 70:02:00
  TRACK 22 AUDIO
    TITLE "(It's All Down To) Goodnight Vienna"
    PERFORMER "Ringo Starr"
    INDEX 01 73:20:11
  TRACK 23 AUDIO
    TITLE "Act Naturally (with Buck Owens)"
    PERFORMER "Ringo Starr"
    INDEX 01 76:22:28

Код:
Код:
Exact Audio Copy V1.0 beta 1 from 15. November 2010

EAC extraction logfile from 31. May 2012, 18:21

Ringo Starr / The Gold Collection [CD3]

Used drive  : ATAPI   iHAP122   W   Adapter: 1  ID: 0

Read mode               : Secure
Utilize accurate stream : Yes
Defeat audio cache      : Yes
Make use of C2 pointers : No

Read offset correction                      : 6
Overread into Lead-In and Lead-Out          : No
Fill up missing offset samples with silence : Yes
Delete leading and trailing silent blocks   : No
Null samples used in CRC calculations       : Yes
Used interface                              : Native Win32 interface for Win NT & 2000

Used output format : Internal WAV Routines
Sample format      : 44.100 Hz; 16 Bit; Stereo

TOC of the extracted CD

     Track |   Start  |  Length  | Start sector | End sector
    ---------------------------------------------------------
        1  |  0:00.00 |  4:20.08 |         0    |    19507
        2  |  4:20.08 |  5:32.34 |     19508    |    44441
        3  |  9:52.42 |  3:26.01 |     44442    |    59892
        4  | 13:18.43 |  2:09.05 |     59893    |    69572
        5  | 15:27.48 |  3:24.23 |     69573    |    84895
        6  | 18:51.71 |  2:07.52 |     84896    |    94472
        7  | 20:59.48 |  2:48.10 |     94473    |   107082
        8  | 23:47.58 |  4:17.40 |    107083    |   126397
        9  | 28:05.23 |  4:50.63 |    126398    |   148210
       10  | 32:56.11 |  3:01.67 |    148211    |   161852
       11  | 35:58.03 |  2:49.58 |    161853    |   174585
       12  | 38:47.61 |  3:19.25 |    174586    |   189535
       13  | 42:07.11 |  4:08.20 |    189536    |   208155
       14  | 46:15.31 |  4:27.45 |    208156    |   228225
       15  | 50:43.01 |  2:33.47 |    228226    |   239747
       16  | 53:16.48 |  3:58.52 |    239748    |   257649
       17  | 57:15.25 |  4:06.31 |    257650    |   276130
       18  | 61:21.56 |  2:15.01 |    276131    |   286256
       19  | 63:36.57 |  2:31.68 |    286257    |   297649
       20  | 66:08.50 |  3:53.25 |    297650    |   315149
       21  | 70:02.00 |  3:18.11 |    315150    |   330010
       22  | 73:20.11 |  3:02.17 |    330011    |   343677
       23  | 76:22.28 |  3:00.26 |    343678    |   357203

Range status and errors

Selected range

     Filename C:\MusicBox\Ringo Starr - The Gold Collection [CD3].wav

     Peak level 89.8 %
     Extraction speed 0.3 X
     Range quality 99.9 %
     Copy CRC 1C56C71F
     Copy OK

No errors occurred

End of status report

Код:
Код:
-----------------------

DON'T MODIFY THIS FILE

-----------------------

PERFORMER: auCDtect Task Manager, ver. 1.5.1RC6 build 1.5.1.7
Copyright (c) 2008-2010 y-soft. All rights reserved
http:/y-soft.org

ANALYZER: auCDtect: CD records authenticity detector, version 0.8.2
Copyright (c) 2004 Oleg Berngardt. All rights reserved.
Copyright (c) 2004 Alexander Djourik. All rights reserved.

FILE: Ringo Starr - The Gold Collection [CD3].flac
  Size: 557790536 Hash: EEDEDB623B0816972D641864A22174D4 Accuracy: -m0
  Conclusion: CDDA 100%
  Signature: 77FCBFBC368ACF630A84A0C3A061D26E7552CB3E

Собрано в Интернете, поэтому если затронуты чьи-то права, то это сделано исключительно не по злому умыслу.
Материал представлен в ознакомительных целях. Если Вам понравились какие-либо композиции или диски - приобретите их по официальным каналам.
Спасибо PlaNed за разрешение на поглощение его раздачи.
Особая благодарность 1234567890
Правила, инструкции, FAQ!!!
Торрент  Добавлен [05 дек 2013, 10:35] Скачать торрент Магнет ссылка
Скачать торрент
[ Размер 30.69 КБ / Просмотров 76 ]

Статус  
 
Размер  5.88 ГБ
Приватный: Нет (DHT включён)
.torrent скачан  1
 


     Отправить личное сообщение
   
Страница 1 из 1
Показать сообщения за:  Поле сортировки  
Начать новую тему Ответить на тему


Сейчас этот форум просматривают: нет зарегистрированных пользователей и гости: 0


Вы не можете начинать темы
Вы не можете отвечать на сообщения
Вы не можете редактировать свои сообщения
Вы не можете удалять свои сообщения
Вы не можете добавлять вложения

Перейти:  
cron
cron