Начать новую тему Ответить на тему
Статистика раздачи
Размер: 3.3 ГБ | Добавлен: 24 авг 2016, 12:33 | Скачали: 1
Сидеров: 3  [0 байт/сек]    Личеров: 0  [0 байт/сек]
Пред. тема | След. тема 

Автор
Сообщение

СообщениеДобавлено: 24 авг 2016, 12:33 

Ответить с цитатой 

Grobschnitt
Жанр: Rock / Krautrock, Prog Rock
Носитель: LP
Год выпуска: 1972 (1977)
Лейбл: BRAIN 0001.008
Страна-производитель: Germany
Аудио кодек: DSD128
Тип рипа: tracks
Формат записи: 1/5.6 MHz
Формат раздачи: 1/5.6 MHz
Продолжительность: 00:41:51

Треклист:
01. Symphony (13:44)
02. Travelling (6:49)
03. Wonderful Music (3:42)
04. Sun Trip (17:36)

Источник оцифровки: автором раздачи
Код класса состояния винила: Ex
Устройство воспроизведения: Spacedeck
Головка звукоснимателя: Sumiko Blue Point
Предварительный усилитель: EAR 834P
АЦП: Teac DA-3000
Программа-оцифровщик: DA3000
Обработка: VinylStudio
foobar2000 1.3.7 / Dynamic Range Meter 1.1.1
log date: 2015-03-02 00:20:35

--------------------------------------------------------------------------------
Analyzed: Grobschnitt / Grobschnitt
--------------------------------------------------------------------------------

DR Peak RMS Duration Track
--------------------------------------------------------------------------------
DR12 -5.25 dB -20.97 dB 13:44 01-Symphony
DR11 -5.70 dB -19.43 dB 6:49 02-Travelling
DR12 -6.78 dB -21.58 dB 3:42 03-Wonderful Music
DR13 -5.24 dB -22.19 dB 17:36 04-Sun Trip
--------------------------------------------------------------------------------

Number of tracks: 4
Official DR value: DR12

Samplerate: 5644800 Hz / PCM Samplerate: 88200 Hz
Channels: 2
Bits per sample: 24
Bitrate: 11290 kbps
Codec: DSD128
================================================================================
Спасибо Толику за предоставленный материал.
Правила, инструкции, FAQ!!!
Торрент  Добавлен [24 авг 2016, 12:33] Скачать торрент Магнет ссылка
Скачать торрент
[ Размер 17.23 КБ / Просмотров 12 ]

Статус
Проверен 
 
Размер  3.3 ГБ
Приватный: Нет (DHT включён)
.torrent скачан  1
 


     Отправить личное сообщение
   
Страница 1 из 1
Показать сообщения за:  Поле сортировки  
Начать новую тему Ответить на тему


Сейчас этот форум просматривают: нет зарегистрированных пользователей и гости: 0


Вы не можете начинать темы
Вы не можете отвечать на сообщения
Вы не можете редактировать свои сообщения
Вы не можете удалять свои сообщения
Вы не можете добавлять вложения

Перейти:  
cron
cron