Начать новую тему Ответить на тему
Статистика раздачи
Размер: 1.32 ГБ | Добавлен: 24 авг 2016, 12:39 | Скачали: 2
Сидеров: 3  [0 байт/сек]    Личеров: 0  [0 байт/сек]
Пред. тема | След. тема 

Автор
Сообщение

СообщениеДобавлено: 24 авг 2016, 12:39 

Ответить с цитатой 

Joe Satriani Flying in a Blue Dream
Жанр: Rock
Год выпуска диска: 1989
Производитель диска: USA
Аудио кодек: FLAC
Тип рипа: image+.cue
Битрейт аудио: 24/96
Трэклист:
1. Flying In A Blue Dream
2. The Mystical Potato Head Groove Thing
3. Can't Slow Down
4. Headless
5. Strange
6. I Believe
7. One Big Rush
8. Big Bad Moon
9. The Feeling
10. The Phone Call
11. Day At The Beach (New Rays From An Ancient Sun)
12. Back To Shalla-Bal
13. Ride
14. The Forgotten (Part One)
15. The Forgotten (Part Two)
16. The Bells of Lal (Part One)
17. The Belles of Lal (Part Two)
18. Into The Light
- Класс состояния винила - Good
- Устройство воспроизведения Rega Planar 3/RB300/Ortofon MC3Turbo/XLO Type2
- Предварительный усилитель DIY Tubes Passive RIAA
- АЦП EMU1616M
- Программа-оцифровщик Wavelab 6
- Обработка NO
- Формат записи (Bit/kHz) 24/96
- Формат раздачи (Bit/kHz) 24/96


An hour-long disc filled with musical explorations and compositions that defy belief, Flying in a Blue Dream is unquestionably Joe Satriani at his absolute best. Breaking his all-instrumental tradition for the first time, he croons on six of the disc's 18 tracks, including the weird "Strange"; and the bluesy, hard-rocking "Big Bad Moon"; and the driving "Can't Slow Down." Satriani's voice isn't extraordinary, but it fits extremely well with the music he creates, especially on the acoustic-tinged, uplifting "I Believe." It's his playing that's the really impressive thing here, though; his unique tone and complex song structures are enhanced by his signature playing style and the incredible array of effects and tricks he wrestles out of his instrument. The disc closes with the high-flying, misty piece "Into the Light," leaving behind a feeling of real wonder. Soaring, powerful, and triumphant, this recording deserves a place in everyone's collection.

Recording information: Alpha & Omega Recording, San Francisco, CA; Coast Recorders, San Francisco, CA; Different Fur, San Francisco, CA; Fantasy Studios, Berkeley, CA; Hyde Street Studios.

Arranger: Joe Satriani.

Personnel includes: Joe Satriani (guitar); Stuart Hamm (bass); Simon Phillips, John Campitelli (drums); Bongo Bob Smith (percussion).

Personnel: Joe Satriani (vocals, guitar, banjo, harmonica, keyboards, percussion, programming); John Cuniberti (sitar, percussion); Jeff Campitelli, Bob Smith (drums, percussion, programming); Simon Phillips (drums); Pete Scaturro (programming).
Разметка,проверка,конвертация by highfiveman
REM GENRE Instrumental Rock
REM DATE 1989
REM COMMENT ripped by drusilla
PERFORMER "Joe Satriani"
TITLE "Flying In A Blue Dream"
FILE "Joe Satriani - Flying In A Blue Dream.flac" WAVE
TRACK 01 AUDIO
TITLE "Flying In A Blue Dream"
INDEX 01 00:04:00
TRACK 02 AUDIO
TITLE "The Mystical Potato Head Groove Thing"
INDEX 01 05:22:00
TRACK 03 AUDIO
TITLE "Can't Slow Down"
INDEX 01 10:30:00
TRACK 04 AUDIO
TITLE "Headless"
INDEX 01 15:18:00
TRACK 05 AUDIO
TITLE "Strange"
INDEX 01 16:46:00
TRACK 06 AUDIO
TITLE "I Believe"
INDEX 01 21:45:00
TRACK 07 AUDIO
TITLE "One Big Rush"
INDEX 01 27:36:00
TRACK 08 AUDIO
TITLE "Big Bad Moon"
INDEX 01 31:06:00
TRACK 09 AUDIO
TITLE "The Feeling"
INDEX 01 36:20:00
TRACK 10 AUDIO
TITLE "The Phone Call"
INDEX 01 37:10:00
TRACK 11 AUDIO
TITLE "Day At The Beach (New Rays From An Ancient Sun)"
INDEX 01 40:13:50
TRACK 12 AUDIO
TITLE "Back To Shalla-bal"
INDEX 01 42:17:00
TRACK 13 AUDIO
TITLE "Ride"
INDEX 01 45:29:50
TRACK 14 AUDIO
TITLE "The Forgotten (Part One)"
INDEX 01 50:23:00
TRACK 15 AUDIO
TITLE "The Forgotten (Part Two)"
INDEX 01 51:35:00
TRACK 16 AUDIO
TITLE "The Bells Of Lal (Part One)"
INDEX 01 56:49:00
TRACK 17 AUDIO
TITLE "The Bells Of Lal (Part Two)"
INDEX 01 58:04:00
TRACK 18 AUDIO
TITLE "Into The Light"
INDEX 01 62:09:00
Правила, инструкции, FAQ!!!
Торрент  Добавлен [24 авг 2016, 12:39] Скачать торрент Магнет ссылка
Скачать торрент
[ Размер 13.86 КБ / Просмотров 38 ]

Статус
Проверен 
 
Размер  1.32 ГБ
Приватный: Нет (DHT включён)
.torrent скачан  2
 


     Отправить личное сообщение
   
Страница 1 из 1
Показать сообщения за:  Поле сортировки  
Начать новую тему Ответить на тему


Сейчас этот форум просматривают: нет зарегистрированных пользователей и гости: 0


Вы не можете начинать темы
Вы не можете отвечать на сообщения
Вы не можете редактировать свои сообщения
Вы не можете удалять свои сообщения
Вы не можете добавлять вложения

Перейти:  
cron
cron