Начать новую тему Ответить на тему
Статистика раздачи
Размер: 610.11 МБ | Добавлен: 24 авг 2016, 12:06 | Скачали: 1
Сидеров: 6  [0 байт/сек]    Личеров: 3  [0 байт/сек]
Пред. тема | След. тема 

Автор
Сообщение

СообщениеДобавлено: 24 авг 2016, 12:06 

Ответить с цитатой 

Jethro Tull
Down to Earth


(Live at The Apollo Theatre, Manchester)


Жанр: Rock
Носитель: MC
Год выпуска: 1977 (2009)
Лейбл: PRRP 054 (bootleg)
Страна-производитель: UK
Аудио кодек: FLAC
Тип рипа: image+.cue
Формат записи: 16/44.1
Формат раздачи: 16/44.1
Продолжительность: 01:51:01
01. Wondr'ing Aloud (2:29)
02. Skating Away (4:53)
03. Jack-In-The-Green (3:43)
04. Thick As A Brick (14:28)
05. Songs From The Wood (5:07)
06. Instrumental-Drum Solo (2:59)
07. To Cry You A Song (2:33)
08. A New Day Yesterday (2:49)
09. Flute Solo (7:18)
10. Living In The Past (1:37)
11. A New Day Yesterday (reprise) (2:49)
12. Velvet Green (6:57)
01. Hunting Girl (6:33)
02. Too Old To Rock'N'Roll (4:01)
03. Beethoven's Ninth Symphony (3:13)
04. Minstrel In The Gallery (5:22)
05. Aqualung (9:16)
06. Guitar Solo (3:05)
07. Wind-Up (4:41)
08. Back Door Angels (4:56)
09. Wind-Up (repise) (2:28)
10. Locomotive Breath (5:46)
11. Land Of Hope and Glory (2:24)
12. Back Door Angels (reprise) (1:34)
Источник оцифровки: деманоид maxtheblues
Устройство воспроизведения: NAD6050C
АЦП: SB Audigy 2
Программа-оцифровщик: Audacity
Обработка: CDRCue, MediaCoder>FLAC Level 8
Звук довольно таки хорош для бутлега.
Наверное записан с пульта, а не с зала.
foobar2000 1.3.3 / Dynamic Range Meter 1.1.1
log date: 2015-04-12 03:49:15

--------------------------------------------------------------------------------
Analyzed: Jethro Tull / Down to Earth - Live at Apollo Theatre, Manchester
--------------------------------------------------------------------------------

DR Peak RMS Duration Track
--------------------------------------------------------------------------------
DR14 -5.41 dB -25.35 dB 2:29 01-Wondr'ing Aloud
DR12 -4.43 dB -21.20 dB 4:53 02-Skating Away
DR12 -1.52 dB -17.92 dB 3:43 03-Jack-In-The-Green
DR9 -0.98 dB -14.37 dB 14:28 04-Thick As A Brick
DR9 -1.32 dB -13.92 dB 5:07 05-Songs From The Wood
DR10 -2.06 dB -14.23 dB 2:59 06-Instrumental-Drum Solo
DR9 -2.27 dB -13.87 dB 2:33 07-To Cry You A Song
DR10 -2.08 dB -15.22 dB 2:49 08-A New Day Yesterday
DR13 -3.73 dB -21.63 dB 7:18 09-Flute Solo
DR9 -1.75 dB -12.49 dB 1:37 10-Living In The Past
DR9 -1.44 dB -16.68 dB 2:49 11-A New Day Yesterday (reprise)
DR12 -2.39 dB -19.97 dB 6:57 12-Velvet Green
--------------------------------------------------------------------------------

Number of tracks: 12
Official DR value: DR11

Samplerate: 44100 Hz
Channels: 2
Bits per sample: 16
Bitrate: 745 kbps
Codec: FLAC
================================================================================

foobar2000 1.3.3 / Dynamic Range Meter 1.1.1
log date: 2015-04-12 12:54:01

--------------------------------------------------------------------------------
Analyzed: Jethro Tull / Down to Earth - Live at The Apollo Theatre, Manchester
--------------------------------------------------------------------------------

DR Peak RMS Duration Track
--------------------------------------------------------------------------------
DR9 -2.38 dB -15.13 dB 6:33 01-Hunting Girl
DR10 -1.31 dB -15.70 dB 4:01 02-Too Old To Rock'N'Roll
DR10 -1.99 dB -14.27 dB 3:13 03-Beethoven's Ninth Symphony
DR9 -1.52 dB -13.77 dB 5:22 04-Minstrel In The Gallery
DR9 -1.52 dB -14.20 dB 9:16 05-Aqualung
DR10 -7.16 dB -20.51 dB 3:05 06-Guitar Solo
DR8 -1.51 dB -13.80 dB 4:41 07-Wind-Up
DR9 -1.53 dB -12.63 dB 4:56 08-Back Door Angels
DR11 -1.54 dB -19.66 dB 2:28 09-Wind-Up (repise)
DR10 -1.48 dB -14.02 dB 5:46 10-Locomotive Breath
DR10 -2.75 dB -14.20 dB 2:24 11-Land Of Hope and Glory
DR12 -3.24 dB -22.87 dB 1:34 12-Back Door Angels (reprise)
--------------------------------------------------------------------------------

Number of tracks: 12
Official DR value: DR10

Samplerate: 44100 Hz
Channels: 2
Bits per sample: 16
Bitrate: 787 kbps
Codec: FLAC
================================================================================
Правила, инструкции, FAQ!!!
Торрент  Добавлен [24 авг 2016, 12:06] Скачать торрент Магнет ссылка
Скачать торрент
[ Размер 14.04 КБ / Просмотров 6 ]

Статус
Проверен 
 
Размер  610.11 МБ
Приватный: Нет (DHT включён)
.torrent скачан  1
 


     Отправить личное сообщение
   
Страница 1 из 1
Показать сообщения за:  Поле сортировки  
Начать новую тему Ответить на тему


Сейчас этот форум просматривают: нет зарегистрированных пользователей и гости: 0


Вы не можете начинать темы
Вы не можете отвечать на сообщения
Вы не можете редактировать свои сообщения
Вы не можете удалять свои сообщения
Вы не можете добавлять вложения

Перейти:  
cron