Начать новую тему Ответить на тему
Статистика раздачи
Размер: 304.76 МБ | Добавлен: 24 авг 2016, 11:49 | Скачали: 1
Сидеров: 4  [0 байт/сек]    Личеров: 1  [0 байт/сек]
Пред. тема | След. тема 

Автор
Сообщение

СообщениеДобавлено: 24 авг 2016, 11:49 

Ответить с цитатой 

Фламинго ‎– Вокально-Инструментальный Ансамбль «Фламинго»

Жанр: Rock/Jazz-Rock, Pop-Rock, Funk-Rock
Носитель: LP
Год выпуска: 1971
Лейбл: Мелодия Д 30743-30744
Страна-производитель: СССР
Аудио кодек: FLAC
Тип рипа: image+.cue
Формат записи: 32bit (float)/192kHz
Формат раздачи: 24 /192
Продолжительность: 28:21

Источник оцифровки: третьим лицом
Код класса состояния винила: VG
Устройство воспроизведения: SL101/SA
Головка звукоснимателя: Audio Note IQ2
Предварительный усилитель: Luxman E-03
АЦП: T.C. Electronic Desktop Konnekt 6
Программа-оцифровщик: Adobe Audition 6.0
Обработка: Удаление нескольких щелчков в ручном режиме, сокращение пауз между песнями.
Сторона 1

A1 Любимец Девушек
Слова (на чешском) – В. Черт
Музыка – Р. ван Леевенд

A2 Хозяин Луны
Слова (на чешском) – В. Черт
Музыка – Н. Даймонд

A3 Розовая Наколка
Музыка, Слова – Ярослав Выкрент

A4 Этот Парень
Слова (на чешском) – В. Черт
Музыка – Д. Волейничек

A5 Береги Свои 17 Лет
Слова – В. Черт
Музыка – Д. Волейничек

Сторона 2

B1 Длинная Неделя
Слова (на чешском) – П. Ерба
Музыка – Хейзелбуд

B2 Михаил
Слова (на чешском) – В. Черт
Музыка – Е. Грант

B3 Агнесс
Слова – Я. Выкрент
Музыка – Д. Волейничек

B4 Страусовые Перья
Музыка – И. Урбанек
REM GENRE Rock
REM DATE 1971
REM COMMENT "ripped by sv-dd"
PERFORMER "Вокально-Инструментальный ансамбль "Фламинго"
TITLE "Фламинго"
FILE "Flamingo.flac" WAVE
TRACK 01 AUDIO
TITLE "Любимец Девушек"
PERFORMER "Фламинго"
INDEX 01 00:00:00
TRACK 02 AUDIO
TITLE "Хозяин Луны"
PERFORMER "Фламинго"
INDEX 01 03:49:00
TRACK 03 AUDIO
TITLE "Розовая Наколка"
PERFORMER "Фламинго"
INDEX 01 06:56:50
TRACK 04 AUDIO
TITLE "Этот Парень"
PERFORMER "Фламинго"
INDEX 01 08:44:50
TRACK 05 AUDIO
TITLE "Береги Свои 17 Лет"
PERFORMER "Фламинго"
INDEX 01 11:44:40
TRACK 06 AUDIO
TITLE "Длинная Неделя"
PERFORMER "Фламинго"
INDEX 01 14:46:50
TRACK 07 AUDIO
TITLE "Михаил"
PERFORMER "Фламинго"
INDEX 01 17:12:62
TRACK 08 AUDIO
TITLE "Агнесс"
PERFORMER "Фламинго"
INDEX 01 20:10:30
TRACK 09 AUDIO
TITLE "Страусовые Перья"
PERFORMER "Фламинго"
INDEX 01 22:41:80
Ленинградский Завод Грампластинок 24- III-71 г.

Credits

Bass Guitar [Uncredited] – Jiří Urbánek (tracks: A1, A2, A4 to B2, B4)
Drums [Uncredited] – Radek Dominik (tracks: A1, A2, A4 to B2, B4)
Guitar [Uncredited] – Jan Hasník (tracks: A1, A2, A4 to B2, B4)
Organ [Uncredited] – Vladimír Figar (tracks: A1, A2, A4 to B2, B4)
Saxophone [Uncredited] – Rudolf Březina (tracks: A1, A2, A4 to B2, B4)
Trumpet [Uncredited], Leader [Uncredited] – Richard Kovalčík (tracks: A1, A2, A4 to B2, B4)
Vocals – Мария Роттрова (tracks: A1, A2, A4, A5, B1, B3), Петер Немец (tracks: A1, A2, A5, B1, B2)
Vocals, Acoustic Guitar [Uncredited] – Ярослав Выкрент (tracks: A3, B3)

На чешском языке

A1: “Dívčí král” – cover version of “Never Marry A Railroad Man”
A2: “Měsíční pán” – cover version of “Cracklin’ Rosie”
A3: “Růžová pentle”
A4: “Tento mladík” – cover version of “Spooky”
A5: “Opatruj svých sedmnáct”

B1: “Mít pouhej tejden” – cover version of “Good Morning Freedom”
B2: “Michael” – cover version of “Michael And The Slipper Tree”
B3: “Agnes”
B4: “Pštrosí pera” (instrumental)
Материал любезно предоставлен sv-dd. Благодарности, разумеется, адресуются в первую очередь ему. Спасибо!
Все предоставленные материалы предлагаются исключительно для ознакомления.
Правила, инструкции, FAQ!!!
Торрент  Добавлен [24 авг 2016, 11:49] Скачать торрент Магнет ссылка
Скачать торрент
[ Размер 12.79 КБ / Просмотров 35 ]

Статус
Проверен 
 
Размер  304.76 МБ
Приватный: Нет (DHT включён)
.torrent скачан  1
 


     Отправить личное сообщение
   
Страница 1 из 1
Показать сообщения за:  Поле сортировки  
Начать новую тему Ответить на тему


Сейчас этот форум просматривают: нет зарегистрированных пользователей и гости: 0


Вы не можете начинать темы
Вы не можете отвечать на сообщения
Вы не можете редактировать свои сообщения
Вы не можете удалять свои сообщения
Вы не можете добавлять вложения

Перейти:  
cron
cron