Начать новую тему Ответить на тему
Статистика раздачи
Размер: 943.16 МБ | Добавлен: 24 авг 2016, 11:37 | Скачали: 2
Сидеров: 6  [0 байт/сек]    Личеров: 3  [0 байт/сек]
Пред. тема | След. тема 

Автор
Сообщение

СообщениеДобавлено: 24 авг 2016, 11:37 

Ответить с цитатой 

Steely Dan - Can't Buy A Thrill

Жанр: Rock, jazz rock, jazz funk, soft rock
Носитель: LP
Год выпуска: 1972
Лейбл: ABC Records/ABC 758
Страна-производитель: US
Аудио кодек: FLAC
Тип рипа: tracks+.cue
Формат записи: 24/96
Формат раздачи: 24/96
Продолжительность: 00:41:21
Треклист:
A1 Do It Again
A2 Dirty Work
A3 Kings
A4 Midnite Cruiser
A5 Only A Fool Would Say That

B1 Reelin' In The Years
B2 Fire In The Hole
B3 Brooklyn
B4 Change Of The Guard
B5 Turn That Heartbeat Over Again

Источник оцифровки: LP Rip & Full Scan LP Cover: Fran Solo
Код класса состояния винила: не указано
Подготовка: RCM Moth MkII Pro Vinyl
Устройство воспроизведения: Marantz 6170
Головка звукоснимателя: SHURE M97xE
Предварительный усилитель: Sansui 9090DB
АЦП: E-MU 0404
Программа-оцифровщик: XLD
Обработка: Silent spaces haven't been deleted in this rip
Спектры, графики и одноминутные семплы: первый и последний треки стороны А
Musicians

Steely Dan
Donald Fagen - acoustic and electric pianos, plastic (YC-30) organ, lead vocals (except on "Dirty Work", "Midnite Cruiser", and "Brooklyn"), backing vocals
Walter Becker - electric bass, backing vocals, dual lead vocal on "Turn That Heartbeat Over Again"
Jeff "Skunk" Baxter - guitar, pedal steel guitar, spoken word on "Only a Fool Would Say That"
Denny Dias - guitar, electric sitar
Jim Hodder - drums, percussion, lead vocal on "Midnite Cruiser", backing vocals
David Palmer - lead vocals on "Dirty Work" and "Brooklyn", backing vocals

Session musicians
Elliott Randall - guitar
Jerome Richardson - tenor saxophone
Snooky Young - flugelhorn
Victor Feldman - percussion
Venetta Fields - backing vocals on "Brooklyn" and "Kings"
Clydie King - backing vocals on "Brooklyn" and "Kings"
Sherlie Matthews - backing vocals on "Brooklyn" and "Kings"

Production
Producer: Gary Katz
Engineer: Roger Nichols
Assistant engineer: Tim Weston
Cover Design: Robert Lockart
----------------------------------------------------------------------------------------------
Analyzed folder: /Steely Dan - Can't Buy A Thrill (LP)
----------------------------------------------------------------------------------------------
DR Peak RMS Filename
----------------------------------------------------------------------------------------------

DR12 -0.09 dB -12.82 dB 01 Steely Dan - LADO 1- Do It Again.wav
DR12 -0.70 dB -15.02 dB 02 Steely Dan - Dirty Work.wav
DR12 -1.25 dB -15.28 dB 03 Steely Dan - Kings.wav
DR11 -1.87 dB -15.45 dB 04 Steely Dan - Midnite Cruiser.wav
DR11 -1.89 dB -14.85 dB 05 Steely Dan - Only A Fool Would Say That.wav
DR11 -0.10 dB -12.79 dB 06 Steely Dan - LADO 2- Reelin' In The Years.wav
DR11 -1.60 dB -15.85 dB 07 Steely Dan - Fire In The Hole.wav
DR12 -0.85 dB -14.84 dB 08 Steely Dan - Brooklyn.wav
DR11 -1.01 dB -14.06 dB 09 Steely Dan - Change Of The Guard.wav
DR13 -0.92 dB -15.99 dB 10 Steely Dan - Turn That Heartbeat Over Again.wav
----------------------------------------------------------------------------------------------

Number of files: 10
Official DR value: DR11

==============================================================================================
#777#777#777#777
Walter Becker and Donald Fagen were remarkable craftsmen from the start, as Steely Dan's debut, Can't Buy a Thrill, illustrates. Each song is tightly constructed, with interlocking chords and gracefully interwoven melodies, buoyed by clever, cryptic lyrics.
All of these are hallmarks of Steely Dan's signature sound, but what is most remarkable about the record is the way it differs from their later albums. Of course, one of the most notable differences is the presence of vocalist David Palmer, a professional blue-eyed soul vocalist who oversings the handful of tracks where he takes the lead. Palmer's very presence signals the one major flaw with the album -- in an attempt to appeal to a wide audience, Becker and Fagen tempered their wildest impulses with mainstream pop techniques. Consequently, there are very few of the jazz flourishes that came to distinguish their albums -- the breakthrough single, "Do It Again," does work an impressively tight Latin jazz beat, and "Reelin' in the Years" has jazzy guitar solos and harmonies -- and the production is overly polished, conforming to all the conventions of early-'70s radio. Of course, that gives these decidedly twisted songs a subversive edge, but compositionally, these aren't as innovative as their later work. Even so, the best moments ("Dirty Work," "Kings," "Midnight Cruiser," "Turn That Heartbeat Over Again") are wonderful pop songs that subvert traditional conventions and more than foreshadow the paths Steely Dan would later take.
allmusic.com
Can't Buy a Thrill — дебютный студийный альбом американской джаз-рок-группы Steely Dan, вышедший в 1972 году на лейбле ABC Records.
В 2003 году журнал Rolling Stone включил этот альбом под № 238 в список «500 величайших альбомов всех времён по версии журнала Rolling Stone».
Альбом получил положительные отзывы музыкальных изданий и критиков, включая Allmusic, Robert Christgau, BBC Musiс, Rolling Stone.
Доп. информация: ABC released two versions with this catalog number.

1972 : Black Label (1st pressing)
1974 : Multi-colored Label (2nd pressing)
Правила, инструкции, FAQ!!!
Торрент  Добавлен [24 авг 2016, 11:37] Скачать торрент Магнет ссылка
Скачать торрент
[ Размер 19.97 КБ / Просмотров 28 ]

Статус
Проверен 
 
Размер  943.16 МБ
Приватный: Нет (DHT включён)
.torrent скачан  2
 


     Отправить личное сообщение
   
Страница 1 из 1
Показать сообщения за:  Поле сортировки  
Начать новую тему Ответить на тему


Сейчас этот форум просматривают: нет зарегистрированных пользователей и гости: 0


Вы не можете начинать темы
Вы не можете отвечать на сообщения
Вы не можете редактировать свои сообщения
Вы не можете удалять свои сообщения
Вы не можете добавлять вложения

Перейти:  
cron
cron