Начать новую тему Ответить на тему
Статистика раздачи
Размер: 1.59 ГБ | Добавлен: 24 авг 2016, 12:09 | Скачали: 0
Сидеров: 1  [0 байт/сек]    Личеров: 0  [0 байт/сек]
Пред. тема | След. тема 

Автор
Сообщение

СообщениеДобавлено: 24 авг 2016, 12:09 

Ответить с цитатой 

HeartMagazine

Жанр: Rock
Год выпуска: 1978
Лейбл: Mushroom Records - MRS-5008
Страна-производитель: US
Аудио кодек: FLAC
Тип рипа: image+.cue
Формат записи: 24/192
Формат раздачи: 24/192
Продолжительность: 00:39:17
Треклист:

A1 Heartless
A2 Devil Delight
A3 Just The Wine
A4 Without You (Ham, Evans)
B1 Magazine
B2 Here Song
B3 Mother Earth Blues (P. Chapman)
B4 I've Got The Music In Me (Bias Boshell)

Acoustic Guitar, Electric Guitar, Blues Harp, Vocals - Nancy Wilson
Bass, Vocals - Steve Fossen
Drums - Michael Derosier
Engineer - Mike Flicker, Rick Keefer
Guitar, Keyboards, Vocals - Howard Leese
Lead Guitar - Roger Fisher
Lead Vocals, Flute, Acoustic Guitar - Ann Wilson
Источник оцифровки: оцифровано Crimson74
Код класса состояния винила: Good
Устройство воспроизведения: Technics SP-10 MK2
Головка звукоснимателя: Audio Technica ML180
Предварительный усилитель: Kora 3T SE MM
АЦП: Edirol R-44
Обработка: удалены отдельные клики в паузах
foobar2000 1.1.8 / Dynamic Range Meter 1.1.1
log date: 2013-12-17 19:24:08

--------------------------------------------------------------------------------
Analyzed: Heart / Magazine
--------------------------------------------------------------------------------

DR Peak RMS Duration Track
--------------------------------------------------------------------------------
DR12 -4.48 dB -19.07 dB 5:01 01-Heartless
DR12 -4.00 dB -18.56 dB 4:59 02-Devil Delight
DR11 -8.66 dB -23.25 dB 4:16 03-Just The Wine
DR13 -4.70 dB -21.38 dB 4:44 04- Without You (Ham, Evans)
DR13 -3.08 dB -20.19 dB 6:23 05-Magazine
DR9 -8.16 dB -21.75 dB 1:36 06-Here Song
DR12 -4.84 dB -21.45 dB 5:59 07-Mother Earth Blues (P. Chapman)
DR13 -4.90 dB -19.65 dB 6:19 08-I've Got The Music In Me (Bias Boshell)
--------------------------------------------------------------------------------

Number of tracks: 8
Official DR value: DR12

Samplerate: 192000 Hz
Channels: 2
Bits per sample: 24
Bitrate: 5442 kbps
Codec: FLAC
================================================================================
В раздаче присутствует файл сэмплов с последних треков.
Большое спасибо VH за оформление раздачи.
Правила, инструкции, FAQ!!!
Торрент  Добавлен [24 авг 2016, 12:09] Скачать торрент Магнет ссылка
Скачать торрент
[ Размер 16.87 КБ / Просмотров 10 ]

Статус
Проверен 
 
Размер  1.59 ГБ
Приватный: Нет (DHT включён)
.torrent скачан  0
 


     Отправить личное сообщение
   
Страница 1 из 1
Показать сообщения за:  Поле сортировки  
Начать новую тему Ответить на тему


Сейчас этот форум просматривают: нет зарегистрированных пользователей и гости: 0


Вы не можете начинать темы
Вы не можете отвечать на сообщения
Вы не можете редактировать свои сообщения
Вы не можете удалять свои сообщения
Вы не можете добавлять вложения

Перейти:  
cron