Начать новую тему Ответить на тему
Статистика раздачи
Размер: 1.49 ГБ | Добавлен: 24 авг 2016, 12:17 | Скачали: 0
Сидеров: 0  [0 байт/сек]    Личеров: 0  [0 байт/сек]
Пред. тема | След. тема 

Автор
Сообщение

СообщениеДобавлено: 24 авг 2016, 12:17 

Ответить с цитатой 

Head East – Live! {Original US Pressing}
Жанр: Rock
Год выпуска: 1979
Лейбл: A&M
Страна-производитель: USA
Аудио кодек: FLAC
Тип рипа: tracks+.cue
Формат записи: 24/96
Формат раздачи: 24/96
Источник оцифровки: Other
Код класса состояния винила: NM
Продолжительность: 1.13.56 min
01. Take A Hand
02. Man I Wanna Be
03. Gettin' Lucky
04. City Of Gold
05. Fly By Night Lady
06. Monkey Shine
07. When I Get Ready
08. Every Little Bit Of My Heart
09. Get Up & Enjoy Yourself
10. Since You Been Gone
11. It's For You
12. Never Been Any Reason
13. Elijah
14. Prelude To 'Creek
15. Jefftown Creek
16. Love Me Tonight
17. I'm Feeling Fine

foobar2000 1.1.10 / Dynamic Range Meter 1.1.1
log date: 2012-05-18 22:29:46

--------------------------------------------------------------------------------
Analyzed: Head East / Live!
--------------------------------------------------------------------------------

DR Peak RMS Duration Track
--------------------------------------------------------------------------------
DR11 -0.70 dB -13.77 dB 4:03 ?-Take A Hand
DR11 -1.17 dB -13.45 dB 3:12 ?-Man I Wanna Be
DR11 -0.70 dB -13.25 dB 3:51 ?-Gettin' Lucky
DR11 -2.11 dB -14.73 dB 4:00 ?-City Of Gold
DR10 -0.70 dB -13.39 dB 3:03 ?-Fly By Night Lady
DR11 -0.70 dB -12.79 dB 3:30 ?-Monkey Shine
DR12 -0.87 dB -13.74 dB 3:04 ?-When I Get Ready
DR11 -1.19 dB -14.48 dB 7:53 ?-Every Little Bit Of My Heart
DR12 -0.70 dB -13.67 dB 4:45 ?-Get Up & Enjoy Yourself
DR11 -0.70 dB -13.58 dB 3:04 ?-Since You Been Gone
DR10 -1.65 dB -14.13 dB 2:59 ?-It's For You
DR11 -0.70 dB -13.22 dB 5:44 ?-Never Been Any Reason
DR11 -2.01 dB -15.33 dB 6:14 ?-Elijah
DR11 -3.35 dB -16.41 dB 3:07 ?-Prelude To 'Creek
DR12 -0.70 dB -13.69 dB 6:47 ?-Jefftown Creek
DR11 -2.24 dB -13.85 dB 4:17 ?-Love Me Tonight
DR11 -2.41 dB -14.66 dB 4:23 ?-I'm Feeling Fine
--------------------------------------------------------------------------------

Number of tracks: 17
Official DR value: DR11

Samplerate: 96000 Hz
Channels: 2
Bits per sample: 24
Bitrate: 2890 kbps
Codec: FLAC
================================================================================
Доп. информация: Head East – Live! {Original US Pressing} | 96kHz & 44.1kHz Vinyl Rip

Posted by pbthal @ May 17th, 2012

Head East – Live!
Vinyl rip in 24-bit/96kHz & 16-bit/44.1kHz | FLAC | Artwork
FP + RS + FF

Vinyl Ripping Process/Equipment
Vinyl Cleaning Process
•3 Liter Ultrasonic Cleaner (Tap water with Sporicidin) on custom rotating assembly at 1 RPM for one hour
•Vacuum off with Nitty Gritty
•AIVS Premium Record Cleaner Formula No. 15 applied with Mofi Brush while rotating on VPI 16.5
•McCulloch MC-1275 Heavy-Duty Steam Cleaner applied with Mofi Brush while rotating on VPI 16.5
•Vacuum off with VPI 16.5
•L’Art du Son Record Cleaning Fluid applied with VPI Bristle brush
•Vacuum off with VPI 16.5
•Whole Foods Deionized Water applied with Mofi Brush (Separate from AIVS Mofi Brush)
•Vacuum off with VPI 16.5
•Flip record and repeat
•Place record on Plate Demgnetizer

Turntable Equipment Profile
•VPI Scoutmaster with inverted bearing and 300 RPM motor
•Trans-Fi ResoMat
•Gingko Cloud 11 Vibration Control Platform
•VPI Synchronous Drive System turntable motor speed controller and line isolator
•Trans-Fi Audio Terminator T3Pro tangential tracking air bearing tonearm with Tomahawk Armwand
•Soundsmith Sussorro Paua

Phono Stage Profile
•Musical Surroundings Phonomena Phono Preamplifier
•Musical Surroundings Battery Power Supply

Analog/Digital Convertion
•RME ADI-2 =< ADAT =< E-MU 1212M
•Adobe Audition 3.01 running on Windows XP in a Shuttle PC form factor

Post Processing Of Audio

•Run thru ClickRepair(if necessary) at level 7 with
•Pitch Protection | off
•Reverse | on
•Simple
•Resample to 96khz in Izotope Rx2 using the default preset
•Manually listen to album in Adobe Audition cleaning any clicks/anomalies
•Flac with Xrecode II for hi-rez files
•Flac with Trader’s Little Helper for redbook files

From The Badger’s Den

Forgotten classic live album
Правила, инструкции, FAQ!!!
Торрент  Добавлен [24 авг 2016, 12:17] Скачать торрент Магнет ссылка
Скачать торрент
[ Размер 16.79 КБ / Просмотров 5 ]

Статус
Проверен 
 
Размер  1.49 ГБ
Приватный: Нет (DHT включён)
.torrent скачан  0
 


     Отправить личное сообщение
   
Страница 1 из 1
Показать сообщения за:  Поле сортировки  
Начать новую тему Ответить на тему


Сейчас этот форум просматривают: нет зарегистрированных пользователей и гости: 0


Вы не можете начинать темы
Вы не можете отвечать на сообщения
Вы не можете редактировать свои сообщения
Вы не можете удалять свои сообщения
Вы не можете добавлять вложения

Перейти:  
cron
cron