Начать новую тему Ответить на тему
Статистика раздачи
Размер: 2.72 ГБ | Добавлен: 24 авг 2016, 12:15 | Скачали: 1
Сидеров: 205  [0 байт/сек]    Личеров: 2  [0 байт/сек]
Пред. тема | След. тема 

Автор
Сообщение

СообщениеДобавлено: 24 авг 2016, 12:15 

Ответить с цитатой 

Neil Young & Crazy Horse – Weld

Жанр: Rock, Grunge, Country Rock
Год выпуска: 1991
Лейбл: Reprise Records, 7599-26671-1
Страна-производитель: Germany
Аудио кодек: FLAC
Тип рипа: sides+.cue
Формат записи: 24/96
Формат раздачи: 24/96
Продолжительность: 1:59:00
Треклист:

A1 Hey Hey, My My (Into The Black) [5:36]
A2 Crime In The City [6:34]
A3 Blowin' In The Wind [6:35]
A4 Love To Burn [9:53]
B1 Welfare Mothers [7:06]
B2 Cinnamon Girl [4:41]
B3 Mansion On The Hill [6:15]
B4 F*!#in' Up [7:07]
B5 Farmer John [4:29]
C1 Cortez The Killer [9:46]
C2 Powderfinger [5:46]
C3 Love And Only Love [9:39]
C4 Roll Another Number [5:23]
D1 Rockin' In The Free World [8:44]
D2 Like A Hurricane [13:25]
D3 Tonight's The Night [8:00]

Neil Young: guitar, vocals
Frank Sampedro: guitar, keyboards, back vocals
Billy Talbot: bass, back vocals
Ralph Molina: drums, back vocals

A live album of Neil & Crazy Horse's 1991 Ragged Glory tour.

Источник оцифровки: выполнена автором раздачи
Код класса состояния винила: Excellent
Устройство воспроизведения: Micro Seiki DD7
Головка звукоснимателя: Denon-103/Denon AU-320
Предварительный усилитель: Audio-Technica ATPEQ20
АЦП: Tascam US-122mkII
Программа-оцифровщик: Audacity 2.0.1
Обработка: никакой
foobar2000 1.1.11 / Dynamic Range Meter 1.1.1
log date: 2013-03-11 16:25:35

--------------------------------------------------------------------------------
Analyzed: Neil Young & Crazy Horse / Weld
--------------------------------------------------------------------------------

DR Peak RMS Duration Track
--------------------------------------------------------------------------------
DR14 -1.01 dB -17.02 dB 5:36 01-Hey Hey, My My (Into The Black)
DR14 -1.57 dB -16.95 dB 6:34 02-Crime In The City
DR12 -1.22 dB -15.43 dB 6:35 03-Blowin' In The Wind
DR13 -0.45 dB -16.45 dB 9:53 04-Love To Burn
DR12 -1.92 dB -16.80 dB 7:06 05-Welfare Mothers
DR13 -2.32 dB -17.83 dB 4:41 06-Cinnamon Girl
DR13 -3.24 dB -18.95 dB 6:15 07-Mansion On The Hill
DR13 -2.41 dB -17.59 dB 7:07 08-F*!#in' Up
DR13 -3.06 dB -18.64 dB 4:29 09-Farmer John
DR14 -2.12 dB -19.10 dB 9:46 10-Cortez The Killer
DR13 -2.48 dB -17.60 dB 5:46 11-Powderfinger
DR13 -2.13 dB -17.07 dB 9:39 12-Love And Only Love
DR13 -2.43 dB -17.47 dB 5:23 13-Roll Another Number
DR14 -0.64 dB -16.47 dB 8:44 14-Rockin' In The Free World
DR13 -2.43 dB -16.95 dB 13:25 15-Like A Hurricane
DR13 -3.39 dB -19.47 dB 8:00 16-Tonight's The Night
--------------------------------------------------------------------------------

Number of tracks: 16
Official DR value: DR13

Samplerate: 96000 Hz
Channels: 2
Bits per sample: 24
Bitrate: 2928 kbps
Codec: FLAC
================================================================================
Правила, инструкции, FAQ!!!
Торрент  Добавлен [24 авг 2016, 12:15] Скачать торрент Магнет ссылка
Скачать торрент
[ Размер 14.64 КБ / Просмотров 22 ]

Статус
Проверен 
 
Размер  2.72 ГБ
Приватный: Нет (DHT включён)
.torrent скачан  1
 


     Отправить личное сообщение
   
Страница 1 из 1
Показать сообщения за:  Поле сортировки  
Начать новую тему Ответить на тему


Сейчас этот форум просматривают: нет зарегистрированных пользователей и гости: 0


Вы не можете начинать темы
Вы не можете отвечать на сообщения
Вы не можете редактировать свои сообщения
Вы не можете удалять свои сообщения
Вы не можете добавлять вложения

Перейти:  
cron
cron