Начать новую тему Ответить на тему
Статистика раздачи
Размер: 779.1 МБ | Добавлен: 24 авг 2016, 14:23 | Скачали: 1
Сидеров: 1  [0 байт/сек]    Личеров: 0  [0 байт/сек]
Пред. тема | След. тема 

Автор
Сообщение

СообщениеДобавлено: 24 авг 2016, 14:23 

Ответить с цитатой 

Crosby & Nash - Graham Nash David Crosby

Жанр: Rock
Носитель: LP
Год выпуска: 1972
Лейбл: Atlantic/SD 7220
Страна-производитель: USA
Аудио кодек: FLAC
Тип рипа: tracks+.cue
Формат записи: ?
Формат раздачи: 24/96
Продолжительность: 35:55.581 (206 935 757 samples)
Треклист:
A1 Southbound Train 3:54
A2 Whole Cloth 4:35
A3 Blacknotes 0:58
A4 Strangers Room 2:28
A5 Where Will I Be? 3:22
A6 Page 43 2:56
B1 Frozen Smiles 2:17
B2 Games 4:02
B3 Girl To Be On My Mind 3:27
B4 The Wall Song 4:37
B5 Immigration Man 3:02
Источник оцифровки: Fran Solo
Код класса состояния винила: Неизвестно
Устройство воспроизведения: Marantz 6170
Головка звукоснимателя: SHURE M97xE
Предварительный усилитель: Sansui 9090DB
АЦП: E-MU 0404
Программа-оцифровщик: ?
Обработка: Silent spaces haven't been deleted in this rip.
foobar2000 1.3.2 / Dynamic Range Meter 1.1.1
log date: 2014-07-23 13:45:27

--------------------------------------------------------------------------------
Analyzed: Crosby & Nash / Graham Nash David Crosby
--------------------------------------------------------------------------------

DR Peak RMS Duration Track
--------------------------------------------------------------------------------
DR12 -1.18 dB -15.05 dB 4:00 01-Southbound Train
DR15 0.00 dB -18.70 dB 4:36 02-Whole Cloth
DR15 -6.00 dB -27.07 dB 0:58 03-Blacknotes
DR13 0.00 dB -17.74 dB 2:28 04-Strangers Room
DR11 -3.09 dB -20.43 dB 3:23 05-Where Will I Be?
DR15 0.00 dB -19.05 dB 3:03 06-Page 43
DR13 0.00 dB -15.31 dB 2:20 07-Frozen Smiles
DR15 0.00 dB -19.45 dB 4:03 08-Games
DR12 0.00 dB -15.55 dB 3:29 09-Girl To Be On My Mind
DR13 -0.70 dB -16.70 dB 4:29 10-The Wall Song
DR12 -1.12 dB -14.74 dB 3:07 11-Immigration Man
--------------------------------------------------------------------------------

Number of tracks: 11
Official DR value: DR13

Samplerate: 96000 Hz
Channels: 2
Bits per sample: 24
Bitrate: 3096 kbps
Codec: FLAC
================================================================================
Правила, инструкции, FAQ!!!
Торрент  Добавлен [24 авг 2016, 14:23] Скачать торрент Магнет ссылка
Скачать торрент
[ Размер 17.09 КБ / Просмотров 10 ]

Статус
Проверен 
 
Размер  779.1 МБ
Приватный: Нет (DHT включён)
.torrent скачан  1
 


     Отправить личное сообщение
   
Страница 1 из 1
Показать сообщения за:  Поле сортировки  
Начать новую тему Ответить на тему


Сейчас этот форум просматривают: нет зарегистрированных пользователей и гости: 0


Вы не можете начинать темы
Вы не можете отвечать на сообщения
Вы не можете редактировать свои сообщения
Вы не можете удалять свои сообщения
Вы не можете добавлять вложения

Перейти:  
cron
cron