Начать новую тему Ответить на тему
Статистика раздачи
Размер: 5.35 ГБ | Добавлен: 24 авг 2016, 12:01 | Скачали: 0
Сидеров: 7  [0 байт/сек]    Личеров: 3  [0 байт/сек]
Пред. тема | След. тема 

Автор
Сообщение

СообщениеДобавлено: 24 авг 2016, 12:01 

Ответить с цитатой 

В дополнение к раздаче уважаемого Аndy

The Beatles
The Beatles Hits, "Битлз" (Белый альбом), "
"Оркестр Клуба Одиноких Сердец Сержанта Пеппера", "Револьверъ", "Abbey Road"
Жанр: Rock/Classic Rock, Beat, Rock-n-Roll, Pop Rock*Год выпуска: 1991 - 1993
Лейбл: BRS, AnTrop, Santa Records (?)*Страна-производитель: Russia
Аудио кодек: FLAC*Тип рипа: image+.cue
Формат записи: 32/192*Формат раздачи: 24/96
Общая продолжительность: 04:19:41*Тэги в .cue: прописаны
Источник оцифровки: автором раздачи*Код класса состояния винила: VG
Устройство воспроизведения: Электроника ЭП 017С*Головка звукоснимателя: ГЗМ – 028 (Корвет)
Предварительный усилитель: AMX - 100 (LTO®)*АЦП: Juli@
Программа-оцифровщик: Adobe Audition CS6 5.0.2.*Обработка: удаление щелчков (б/ф)

A1 Michelle
A2 In My Life
A3 What Goes On
A4 Run For Your Life
A5 Drive My Car
A6 Norwegian Wood
A7 I'll Follow The Sun
A8 I'm Happy Just To Dance With You
B1 Nowhere Man
B2 All I've Got To Do
B3 Ask Me Why
B4 A Taste Of Honey
B5 You Won't See Me
B6 The Word
B7 Not A Second Time
B8 Don't Bother Me

LP 1

A1 Снова В СССР
A2 Дорогая Пруденс
A3 Стеклянная Луковица
A4 Об-ла-ди, Об-ла-да
A5 Натуральный Медовый Пирожок
A6 История С Продолжением Про Бангало Билла
A7 Пока Моя Гитара Тихо Плачет
A8 Счастье - Это Тёплое Оружие
B1 Дорогая Моя Марта
B2 Я Так Устал
B3 Чёрный Дрозд
B4 Хрюшки
B5 Роки Ракун
B6 Не Отвергай Меня
B7 Почему Бы Нам Не Сделать Это Прямо На Дороге
B8 Я Сделаю Это
B9 Джулия
LP 2

A1 День Рождения
A2 Твой Блюз
A3 Сынишка Матери-Природы
A4 У Каждого Есть То, Что Можно Спрятать - Кроме Нас С Мартышкой
A5 Секси Сэди
A6 Спиральная Горка
A7 Давно, Давным-Давно
B1 Революция № 1
B2 Душечка
B3 Савойские Трюфели
B4 Плачь, Детка, Плачь
B5 Революция № 9
B6 Спокойной Ночи

Оркестр Клуба Одиноких Сердец Сержанта Пеппера

A1 Оркестр Клуба Одиноких Сердец Сержанта Пеппера (1-я Версия)
A2 С Маленькой Помощью Друзей
A3 Люси В Небе С Алмазами
A4 Все Идет К Лучшему
A5 Заделываю Дыру
A6 Она Уходит Из Дома
A7 Бенефис Мистера Кайта!
B1 С Тобой И Без Тебя
B2 Когда Мне Будет Шестьдесят Четыре
B3 Милашка Рита
B4 Доброе Утро! Доброе Утро!
B5 Оркестр Клуба Одиноких Сердец Сержанта Пеппера (2-я Версия)
B6 Один День Моей Жизни

Револьверъ

C1 Сборщик Налогов
C2 Элинор Ригби
C3 Я Только Сплю
C4 Я Тоже Тебя Люблю
C5 Здесь, Там И Везде
C6 Желтая Субмарина
C7 Она Сказала, Она Сказала
D1 Хороший День, Солнце Светит
D2 И Твоя Птичка Запоет
D3 Не Для Кого
D4 Доктор Роберт
D5 Я Хочу Сказать Тебе
D6 Готов Взять Тебя В Мою Жизнь
D7 Завтра Никто Не Знает

A1 Come Together
A2 Something
A3 Maxwell's Silver Hammer
A4 Oh! Darling
A5 Octopus's Garden
A6 I Want You (She's So Heavy)
B7 Here Comes The Sun
B8 Because
B9 You Never Give Me Your Money
B10 Sun King
B11 Mean Mr Mustard
B12 Polythene Pam
B13 She Came In Through The Bathroom Window
B14 Golden Slumbers
B15 Carry That Weight
B16 The End
B17 Her Majesty

















Код:
REM GENRE Rock/Beat, Rock & Roll
REM DATE 1991
REM COMENT Vinyl, LP, Compilation, Unofficial Release, BRS A90-00827-28, USSR
TITLE The Beatles Hits
PERFORMER The Beatles
FILE "01. Side 1.flac" WAVE
  TRACK 01 AUDIO
    TITLE "A1 Michelle"
    INDEX 01 00:00:00
  TRACK 02 AUDIO
    TITLE "A2 In My Life"
    INDEX 01 02:58:61
  TRACK 03 AUDIO
    TITLE "A3 What Goes On"
    INDEX 01 05:25:03
  TRACK 04 AUDIO
    TITLE "A4 Run For Your Life"
    INDEX 01 08:13:36
  TRACK 05 AUDIO
    TITLE "A5 Drive My Car"
    INDEX 01 10:32:69
  TRACK 06 AUDIO
    TITLE "A6 Norwegian Wood"
    INDEX 01 13:03:07
  TRACK 07 AUDIO
    TITLE "A7 I'll Follow The Sun"
    INDEX 01 15:08:34
  TRACK 08 AUDIO
    TITLE "A8 I'm Happy Just To Dance With You"
    INDEX 01 16:57:25
FILE "02. Side 2.flac" WAVE
  TRACK 09 AUDIO
    TITLE "B1 Nowhere Man"
    INDEX 01 00:00:00
  TRACK 10 AUDIO
    TITLE "B2 All I've Got To Do"
    INDEX 01 02:51:17
  TRACK 11 AUDIO
    TITLE "B3 Ask Me Why"
    INDEX 01 04:54:05
  TRACK 12 AUDIO
    TITLE "B4 A Taste Of Honey"
    INDEX 01 07:19:31
  TRACK 13 AUDIO
    TITLE "B5 You Won't See Me"
    INDEX 01 09:22:03
  TRACK 14 AUDIO
    TITLE "B6 The Word"
    INDEX 01 12:41:08
  TRACK 15 AUDIO
    TITLE "B7 Not A Second Time"
    INDEX 01 15:25:45
  TRACK 16 AUDIO
    TITLE "B8 Don't Bother Me"
    INDEX 01 17:31:67
Код:
REM GENRE Rock/Rock & Roll, Pop Rock
REM DATE 1991
REM COMENT Vinyl, LP 1, Album, Unofficial Release, AnTrop - П91 00011, Russia
TITLE The Beatles (White Duble Album)
PERFORMER The Beatles
FILE "01. Side 1.flac" WAVE
  TRACK 01 AUDIO
    TITLE "A1 Снова В СССР"
    INDEX 01 00:00:00
  TRACK 02 AUDIO
    TITLE "A2 Дорогая Пруденс"
    INDEX 01 03:00:62
  TRACK 03 AUDIO
    TITLE "A3 Стеклянная Луковица"
    INDEX 01 06:56:37
  TRACK 04 AUDIO
    TITLE "A4 Об-ла-ди, Об-ла-да"
    INDEX 01 09:14:65
  TRACK 05 AUDIO
    TITLE "A5 Натуральный Медовый Пирожок"
    INDEX 01 12:24:15
  TRACK 06 AUDIO
    TITLE "A6 История С Продолжением Про Бангало Билла"
    INDEX 01 13:17:11
  TRACK 07 AUDIO
    TITLE "A7 Пока Моя Гитара Тихо Плачет"
    INDEX 01 16:30:52
  TRACK 08 AUDIO
    TITLE "A8 Счастье - Это Тёплое Оружие"
    INDEX 01 21:14:72
FILE "02. Side 2.flac" WAVE
  TRACK 09 AUDIO
    TITLE "B1 Дорогая Моя Марта"
    INDEX 01 00:00:00
  TRACK 10 AUDIO
    TITLE "B2 Я Так Устал"
    INDEX 01 02:42:66
  TRACK 11 AUDIO
    TITLE "B3 Чёрный Дрозд"
    INDEX 01 04:46:25
  TRACK 12 AUDIO
    TITLE "B4 Хрюшки"
    INDEX 01 07:04:57
  TRACK 13 AUDIO
    TITLE "B5 Роки Ракун"
    INDEX 01 09:09:18
  TRACK 14 AUDIO
    TITLE "B6 Не Отвергай Меня"
    INDEX 01 12:42:26
  TRACK 15 AUDIO
    TITLE "B7 Почему Бы Нам Не Сделать Это Прямо На Дороге"
    INDEX 01 16:32:66
  TRACK 16 AUDIO
    TITLE "B8 Я Сделаю Это"
    INDEX 01 18:14:45
  TRACK 17 AUDIO
    TITLE "B9 Джулия"
    INDEX 01 20:00:45[hr][/hr][hr][/hr]REM GENRE Rock/Rock & Roll, Pop Rock
REM DATE 1991
REM COMENT Vinyl, LP 2, Album, Unofficial Release, AnTrop - П91 00011, Russia
TITLE The Beatles (White Duble Album)
PERFORMER The Beatles
FILE "03. Side 3.flac" WAVE
  TRACK 01 AUDIO
    TITLE "A1 День Рождения"
    INDEX 01 00:00:00
  TRACK 02 AUDIO
    TITLE "A2 Твой Блюз"
    INDEX 01 03:03:33
  TRACK 03 AUDIO
    TITLE "A3 Сынишка Матери-Природы"
    INDEX 01 07:03:53
  TRACK 04 AUDIO
    TITLE "A4 У Каждого Есть То, Что Можно Спрятать - Кроме Нас С Мартышкой"
    INDEX 01 09:51:47
  TRACK 05 AUDIO
    TITLE "A5 Секси Сэди"
    INDEX 01 12:17:15
  TRACK 06 AUDIO
    TITLE "A6 Спиральная Горка"
    INDEX 01 15:30:43
  TRACK 07 AUDIO
    TITLE "A7 Давно, Давным-Давно"
    INDEX 01 19:14:60
FILE "04. Side 4.flac" WAVE
  TRACK 08 AUDIO
    TITLE "B1 Революция № 1"
    INDEX 01 00:00:00
  TRACK 09 AUDIO
    TITLE "B2 Душечка"
    INDEX 01 04:32:58
  TRACK 10 AUDIO
    TITLE "B3 Савойские Трюфели"
    INDEX 01 07:15:21
  TRACK 11 AUDIO
    TITLE "B4 Плачь, Детка, Плачь"
    INDEX 01 10:10:26
  TRACK 12 AUDIO
    TITLE "B5 Революция № 9"
    INDEX 01 13:12:69
  TRACK 13 AUDIO
    TITLE "B6 Спокойной Ночи"
    INDEX 01 21:34:15
Код:
REM GENRE Rock/Rock & Roll, Psychedelic Rock, Pop Rock
REM DATE 1992
REM COMENT Vinyl, LP, Album, Compilation, Unofficial Release, AnTrop – П91 00117, Russia
TITLE Оркестр Клуба Одиноких Сердец Сержанта Пеппера
PERFORMER The Beatles
FILE "01. Side 1 (4).flac" WAVE
  TRACK 01 AUDIO
    TITLE "A1 Оркестр Клуба Одиноких Сердец Сержанта Пеппера (1-я Версия)"
    INDEX 01 00:00:00
  TRACK 02 AUDIO
    TITLE "A2 С Маленькой Помощью Друзей"
    INDEX 01 02:24:48
  TRACK 03 AUDIO
    TITLE "A3 Люси В Небе С Алмазами"
    INDEX 01 05:04:44
  TRACK 04 AUDIO
    TITLE "A4 Все Идет К Лучшему"
    INDEX 01 08:35:09
  TRACK 05 AUDIO
    TITLE "A5 Заделываю Дыру"
    INDEX 01 11:28:20
  TRACK 06 AUDIO
    TITLE "A6 Она Уходит Из Дома"
    INDEX 01 14:08:50
  TRACK 07 AUDIO
    TITLE "A7 Бенефис Мистера Кайта!"
    INDEX 01 17:48:58
FILE "02. Side 2 (4).flac" WAVE
  TRACK 08 AUDIO
    TITLE "B1 С Тобой И Без Тебя"
    INDEX 01 00:00:00
  TRACK 09 AUDIO
    TITLE "B2 Когда Мне Будет Шестьдесят Четыре"
    INDEX 01 05:21:43
  TRACK 10 AUDIO
    TITLE "B3 Милашка Рита"
    INDEX 01 08:04:43
  TRACK 11 AUDIO
    TITLE "B4 Доброе Утро! Доброе Утро!"
    INDEX 01 10:51:45
  TRACK 12 AUDIO
    TITLE "B5 Оркестр Клуба Одиноких Сердец Сержанта Пеппера (2-я Версия)"
    INDEX 01 13:38:38
  TRACK 13 AUDIO
    TITLE "B6 Один День Моей Жизни"
    INDEX 01 14:58:28[hr][/hr][hr][/hr]REM GENRE Rock/Rock & Roll, Psychedelic Rock, Pop Rock
REM DATE 1992
REM COMENT Vinyl, LP, Album, Compilation, Unofficial Release, AnTrop – П91 00119, Russia
TITLE Револьверъ
PERFORMER The Beatles
FILE "03. Side 3 (4).flac" WAVE
  TRACK 01 AUDIO
    TITLE "C1 Сборщик Налогов"
    INDEX 01 00:00:00
  TRACK 02 AUDIO
    TITLE "C2 Элинор Ригби"
    INDEX 01 02:57:46
  TRACK 03 AUDIO
    TITLE "C3 Я Только Сплю"
    INDEX 01 05:07:46
  TRACK 04 AUDIO
    TITLE "C4 Я Тоже Тебя Люблю"
    INDEX 01 08:08:46
  TRACK 05 AUDIO
    TITLE "C5 Здесь, Там И Везде"
    INDEX 01 11:10:71
  TRACK 06 AUDIO
    TITLE "C6 Желтая Субмарина"
    INDEX 01 13:40:71
  TRACK 07 AUDIO
    TITLE "C7 Она Сказала, Она Сказала"
    INDEX 01 16:22:08
FILE "04. Side 4 (4).flac" WAVE
  TRACK 08 AUDIO
    TITLE "D1 Хороший День, Солнце Светит"
    INDEX 01 00:00:00
  TRACK 09 AUDIO
    TITLE "D2 И Твоя Птичка Запоет"
    INDEX 01 02:27:30
  TRACK 10 AUDIO
    TITLE "D3 Не Для Кого"
    INDEX 01 04:32:35
  TRACK 11 AUDIO
    TITLE "D4 Доктор Роберт"
    INDEX 01 06:34:57
  TRACK 12 AUDIO
    TITLE "D5 Я Хочу Сказать Тебе"
    INDEX 01 08:54:40
  TRACK 13 AUDIO
    TITLE "D6 Готов Взять Тебя В Мою Жизнь"
    INDEX 01 11:23:57
  TRACK 14 AUDIO
    TITLE "D7 Завтра Никто Не Знает"
    INDEX 01 13:56:09
Код:
REM GENRE Rock/Classic Rock, Pop Rock
REM DATE 1993
REM COMENT Vinyl, LP, Album, Unofficial Release, Santa Records (?), Russia
TITLE Abbey Road
PERFORMER The Beatles
FILE "01. Side 1.flac" WAVE
  TRACK 01 AUDIO
    TITLE "A1 Come Together"
    INDEX 01 00:00:00
  TRACK 02 AUDIO
    TITLE "A2 Something"
    INDEX 01 04:34:33
  TRACK 03 AUDIO
    TITLE "A3 Maxwell's Silver Hammer"
    INDEX 01 07:38:52
  TRACK 04 AUDIO
    TITLE "A4 Oh! Darling"
    INDEX 01 11:07:44
  TRACK 05 AUDIO
    TITLE "A5 Octopus's Garden"
    INDEX 01 14:34:14
  TRACK 06 AUDIO
    TITLE "A6 I Want You (She's So Heavy)"
    INDEX 01 17:25:06
FILE "02. Side 2.flac" WAVE
  TRACK 07 AUDIO
    TITLE "B7 Here Comes The Sun"
    INDEX 01 00:00:00
  TRACK 08 AUDIO
    TITLE "B8 Because"
    INDEX 01 03:23:56
  TRACK 09 AUDIO
    TITLE "B9 You Never Give Me Your Money"
    INDEX 01 06:09:68
  TRACK 10 AUDIO
    TITLE "B10 Sun King"
    INDEX 01 10:05:68
  TRACK 11 AUDIO
    TITLE "B11 Mean Mr Mustard"
    INDEX 01 12:38:48
  TRACK 12 AUDIO
    TITLE "B12 Polythene Pam"
    INDEX 01 13:44:73
  TRACK 13 AUDIO
    TITLE "B13 She Came In Through The Bathroom Window"
    INDEX 01 15:03:39
  TRACK 14 AUDIO
    TITLE "B14 Golden Slumbers"
    INDEX 01 16:55:29
  TRACK 15 AUDIO
    TITLE "B15 Carry That Weight"
    INDEX 01 19:34:18
  TRACK 16 AUDIO
    TITLE "B16 The End"
    INDEX 01 20:03:30
  TRACK 17 AUDIO
    TITLE "B17 Her Majesty"
    INDEX 01 22:23:48
10 сэмплов в отдельной подпапке папки раздачи.
Доп. информация: Есть пара-тройка мелких заводских дефектов, а в общем пластинки вполне слушабельны. Сомневающимся рекомендую предварительно скачать сэмплы.

Большое человеческое спасибо уважаемому boyhunt за предоставленный музыкальный материал и техническую поддержку!

Правила, инструкции, FAQ!!!
Торрент  Добавлен [24 авг 2016, 12:01] Скачать торрент Магнет ссылка
Скачать торрент
[ Размер 32.97 КБ / Просмотров 16 ]

Статус
Проверен 
 
Размер  5.35 ГБ
Приватный: Нет (DHT включён)
.torrent скачан  0
 


     Отправить личное сообщение
   
Страница 1 из 1
Показать сообщения за:  Поле сортировки  
Начать новую тему Ответить на тему


Сейчас этот форум просматривают: нет зарегистрированных пользователей и гости: 0


Вы не можете начинать темы
Вы не можете отвечать на сообщения
Вы не можете редактировать свои сообщения
Вы не можете удалять свои сообщения
Вы не можете добавлять вложения

Перейти:  
cron