Начать новую тему Ответить на тему
Статистика раздачи
Размер: 514.67 МБ | Добавлен: 24 авг 2016, 12:15 | Скачали: 0
Сидеров: 1  [0 байт/сек]    Личеров: 0  [0 байт/сек]
Пред. тема | След. тема 

Автор
Сообщение

СообщениеДобавлено: 24 авг 2016, 12:15 

Ответить с цитатой 

Chicago - Chicago17

Жанр: Rock
Носитель: LP
Год выпуска: 1983
Лейбл: Suzi
Страна-производитель: Yugoslavia
Аудио кодек: FLAC
Тип рипа: tracks+.cue
Формат записи: 32/192
Формат раздачи: 24/48
Продолжительность: 41.03 min
Треклист:
01. Stay The Night
02. We Can Stop The Hurtin'
03. Hard Habit To Break
04. Only You
05. Remember The Feeling
06. Along Comes A Woman
07. You're The Inspiration
08. Please Hold On
09. Prima Donna
10. Once In A Lifetime

Источник оцифровки: автором раздачи
Код класса состояния винила: NM
Устройство воспроизведения: Электроника ЭП 017С
Головка звукоснимателя: Audio-Technica AT95
Предварительный усилитель: Бриг-001
АЦП: VIA HD audio device
Программа-оцифровщик: Izotope RX 4 Advanced
Обработка: Izotope RX 4 Advanced
foobar2000 1.1.10 / Dynamic Range Meter 1.1.1
log date: 2015-12-18 19:33:52

--------------------------------------------------------------------------------
Analyzed: Chicago / Chicago17
--------------------------------------------------------------------------------

DR Peak RMS Duration Track
--------------------------------------------------------------------------------
DR13 -0.61 dB -15.69 dB 3:49 ?-Stay The Night
DR12 -0.43 dB -14.62 dB 4:10 ?-We Can Stop The Hurtin'
DR13 -1.06 dB -17.07 dB 4:44 ?-Hard Habit To Break
DR12 -0.78 dB -16.35 dB 3:52 ?-Only You
DR14 -2.23 dB -18.96 dB 4:28 ?-Remember The Feeling
DR13 -0.39 dB -15.24 dB 4:14 ?-Along Comes A Woman
DR13 -1.19 dB -16.71 dB 3:48 ?-You're The Inspiration
DR13 -2.28 dB -17.12 dB 3:38 ?-Please Hold On
DR12 -2.41 dB -17.00 dB 4:08 ?-Prima Donna
DR12 -1.85 dB -16.35 dB 4:12 ?-Once In A Lifetime
--------------------------------------------------------------------------------

Number of tracks: 10
Official DR value: DR13

Samplerate: 48000 Hz
Channels: 2
Bits per sample: 24
Bitrate: 1717 kbps
Codec: FLAC
================================================================================
Из коллекций моего друга Сосо Ч.
(а дружили мы с детского сада....)
Царство ему небесная!
Правила, инструкции, FAQ!!!
Торрент  Добавлен [24 авг 2016, 12:15] Скачать торрент Магнет ссылка
Скачать торрент
[ Размер 11.42 КБ / Просмотров 14 ]

Статус
Проверен 
 
Размер  514.67 МБ
Приватный: Нет (DHT включён)
.torrent скачан  0
 


     Отправить личное сообщение
   
Страница 1 из 1
Показать сообщения за:  Поле сортировки  
Начать новую тему Ответить на тему


Сейчас этот форум просматривают: нет зарегистрированных пользователей и гости: 0


Вы не можете начинать темы
Вы не можете отвечать на сообщения
Вы не можете редактировать свои сообщения
Вы не можете удалять свои сообщения
Вы не можете добавлять вложения

Перейти:  
cron
cron