Начать новую тему Ответить на тему
Статистика раздачи
Размер: 1.36 ГБ | Добавлен: 24 авг 2016, 12:07 | Скачали: 0
Сидеров: 2  [0 байт/сек]    Личеров: 2  [0 байт/сек]
Пред. тема | След. тема 

Автор
Сообщение

СообщениеДобавлено: 24 авг 2016, 12:07 

Ответить с цитатой 

Bruce Springsteen & The E-Street Band - Live 75-85 [5LP]
Жанр: Rock
Год выпуска: 1985
Лейбл: Columbia
Страна-производитель: USA
Аудио кодек: FLAC
Тип рипа: tracks
Формат записи: 16/44
Формат раздачи: 16/44
Источник оцифровки: Created by offtheearth (From Demonoid)
Код класса состояния винила: NM
LP 1 43.38 min
001-THUNDER ROAD
002-ADAM RAISED A CAIN
003-SPIRIT IN THE NIGHT
004-SANDY
005-PARADISE BY THE C
006-FIRE
007-GROWIN UP
008-IT'S HARD TO BE A SAINT IN THE CITY

LP 2 43.41 min
001-BACKSTREETS
002-ROSALITA
003-RAISE YOUR HAND
004-HUNGRY HEART
005-TWO HEARTS
006-CADILLAC RANCH
007-YOU CAN LOOK (BUT YOU BETTER NOT TOUCH)
008-INDEPENDENCE DAY

LP 3 44.29 min
001-BADLANDS
002-BECAUSE THE NIGHT
003-CANDY'S ROOM
004-DARKNESS ON THE EDGE OF TOWN
005-RACING IN THE STREET
006-THIS LAND IS YOUR LAND
007-NEBRASKA
008-JOHNNY 99
009-REASON TO BELIEVE

LP 4 42.27 min
001-BORN IN THE USA
002-SEEDS
003-THE RIVER
004-WAR
005-DARLINGTON COUNTY
006-WORKING ON THE HIGHWAY
007-PROMISED LAND

LP 5 41.15 min
001-COVER ME
002-I'M ON FIRE
003-BOBBY JEAN
004-MY HOMETOWN
005-BORN TO RUN
006-NO SURRENDER
007-TENTH AVENUE FREEZEOUT
008-JERSEY GIRL




for LP I
REM GENRE Rock
REM DATE 1986
PERFORMER "Bruce Springsteen"
TITLE "LIVE 1975-85"
FILE "001-THUNDER ROAD.flac" WAVE
TRACK 01 AUDIO
TITLE "THUNDER ROAD"
INDEX 01 00:00:00
FILE "002-ADAM RAISED A CAIN.flac" WAVE
TRACK 02 AUDIO
TITLE "ADAM RAISED A CAIN"
INDEX 01 00:00:00
FILE "003-SPIRIT IN THE NIGHT.flac" WAVE
TRACK 03 AUDIO
TITLE "SPIRIT IN THE NIGHT"
INDEX 01 00:00:00
FILE "004-SANDY.flac" WAVE
TRACK 04 AUDIO
TITLE "SANDY"
INDEX 01 00:00:00
FILE "005-PARADISE BY THE C.flac" WAVE
TRACK 05 AUDIO
TITLE "PARADISE BY THE C"
INDEX 01 00:00:00
FILE "006-FIRE.flac" WAVE
TRACK 06 AUDIO
TITLE "FIRE"
INDEX 01 00:00:00
FILE "007-GROWIN UP.flac" WAVE
TRACK 07 AUDIO
TITLE "GROWIN UP"
INDEX 01 00:00:00
FILE "008-IT'S HARD TO BE A SAINT IN THE CITY.flac" WAVE
TRACK 08 AUDIO
TITLE "IT'S HARD TO BE A SAINT IN THE CITY"
INDEX 01 00:00:00

For LP II
REM GENRE Rock
REM DATE 1986
PERFORMER "Bruce Springsteen"
TITLE "LIVE 1975-85"
FILE "001-BACKSTREETS.flac" WAVE
TRACK 01 AUDIO
TITLE "BACKSTREETS"
INDEX 01 00:00:00
FILE "002-ROSALITA.flac" WAVE
TRACK 02 AUDIO
TITLE "ROSALITA"
INDEX 01 00:00:00
FILE "003-RAISE YOUR HAND.flac" WAVE
TRACK 03 AUDIO
TITLE "RAISE YOUR HAND"
INDEX 01 00:00:00
FILE "004-HUNGRY HEART.flac" WAVE
TRACK 04 AUDIO
TITLE "HUNGRY HEART"
INDEX 01 00:00:00
FILE "005-TWO HEARTS.flac" WAVE
TRACK 05 AUDIO
TITLE "TWO HEARTS"
INDEX 01 00:00:00
FILE "006-CADILLAC RANCH.flac" WAVE
TRACK 06 AUDIO
TITLE "CADILLAC RANCH"
INDEX 01 00:00:00
FILE "007-YOU CAN LOOK (BUT YOU BETTER NOT TOUCH).flac" WAVE
TRACK 07 AUDIO
TITLE "YOU CAN LOOK (BUT YOU BETTER NOT TOUCH)"
INDEX 01 00:00:00
FILE "008-INDEPENDENCE DAY.flac" WAVE
TRACK 08 AUDIO
TITLE "INDEPENDENCE DAY"
INDEX 01 00:00:00

For LP III
REM GENRE Rock
REM DATE 1986
PERFORMER "Bruce Springsteen"
TITLE "LIVE 1975-85"
FILE "001-BADLANDS.flac" WAVE
TRACK 01 AUDIO
TITLE "BADLANDS"
INDEX 01 00:00:00
FILE "002-BECAUSE THE NIGHT.flac" WAVE
TRACK 02 AUDIO
TITLE "BECAUSE THE NIGHT"
INDEX 01 00:00:00
FILE "003-CANDY'S ROOM.flac" WAVE
TRACK 03 AUDIO
TITLE "CANDY'S ROOM"
INDEX 01 00:00:00
FILE "004-DARKNESS ON THE EDGE OF TOWN.flac" WAVE
TRACK 04 AUDIO
TITLE "DARKNESS ON THE EDGE OF TOWN"
INDEX 01 00:00:00
FILE "005-RACING IN THE STREET.flac" WAVE
TRACK 05 AUDIO
TITLE "RACING IN THE STREET"
INDEX 01 00:00:00
FILE "006-THIS LAND IS YOUR LAND.flac" WAVE
TRACK 06 AUDIO
TITLE "THIS LAND IS YOUR LAND"
INDEX 01 00:00:00
FILE "007-NEBRASKA.flac" WAVE
TRACK 07 AUDIO
TITLE "NEBRASKA"
INDEX 01 00:00:00
FILE "008-JOHNNY 99.flac" WAVE
TRACK 08 AUDIO
TITLE "JOHNNY 99"
INDEX 01 00:00:00
FILE "009-REASON TO BELIEVE.flac" WAVE
TRACK 09 AUDIO
TITLE "REASON TO BELIEVE"
INDEX 01 00:00:00

For LP IV
REM GENRE Rock
REM DATE 1986
PERFORMER "Bruce Springsteen"
TITLE "LIVE 1975-85"
FILE "001-BORN IN THE USA.flac" WAVE
TRACK 01 AUDIO
TITLE "BORN IN THE USA"
INDEX 01 00:00:00
FILE "002-SEEDS.flac" WAVE
TRACK 02 AUDIO
TITLE "SEEDS"
INDEX 01 00:00:00
FILE "003-THE RIVER.flac" WAVE
TRACK 03 AUDIO
TITLE "THE RIVER"
INDEX 01 00:00:00
FILE "004-WAR.flac" WAVE
TRACK 04 AUDIO
TITLE "WAR"
INDEX 01 00:00:00
FILE "005-DARLINGTON COUNTY.flac" WAVE
TRACK 05 AUDIO
TITLE "DARLINGTON COUNTY"
INDEX 01 00:00:00
FILE "006-WORKING ON THE HIGHWAY.flac" WAVE
TRACK 06 AUDIO
TITLE "WORKING ON THE HIGHWAY"
INDEX 01 00:00:00
FILE "007-PROMISED LAND.flac" WAVE
TRACK 07 AUDIO
TITLE "PROMISED LAND"
INDEX 01 00:00:00

For LP V
REM GENRE Rock
REM DATE 1986
PERFORMER "Bruce Springsteen"
TITLE "LIVE 1975-85"
FILE "001-COVER ME.flac" WAVE
TRACK 01 AUDIO
TITLE "COVER ME"
INDEX 01 00:00:00
FILE "002-I'M ON FIRE.flac" WAVE
TRACK 02 AUDIO
TITLE "I'M ON FIRE"
INDEX 01 00:00:00
FILE "003-BOBBY JEAN.flac" WAVE
TRACK 03 AUDIO
TITLE "BOBBY JEAN"
INDEX 01 00:00:00
FILE "004-MY HOMETOWN.flac" WAVE
TRACK 04 AUDIO
TITLE "MY HOMETOWN"
INDEX 01 00:00:00
FILE "005-BORN TO RUN.flac" WAVE
TRACK 05 AUDIO
TITLE "BORN TO RUN"
INDEX 01 00:00:00
FILE "006-NO SURRENDER.flac" WAVE
TRACK 06 AUDIO
TITLE "NO SURRENDER"
INDEX 01 00:00:00
FILE "007-TENTH AVENUE FREEZEOUT.flac" WAVE
TRACK 07 AUDIO
TITLE "TENTH AVENUE FREEZEOUT"
INDEX 01 00:00:00
FILE "008-JERSEY GIRL.flac" WAVE
TRACK 08 AUDIO
TITLE "JERSEY GIRL"
INDEX 01 00:00:00
For LP I
foobar2000 1.1.10 / Dynamic Range Meter 1.1.1
log date: 2013-10-02 08:25:36

--------------------------------------------------------------------------------
Analyzed: ? / ?
--------------------------------------------------------------------------------

DR Peak RMS Duration Track
--------------------------------------------------------------------------------
DR13 -1.09 dB -18.19 dB 5:42 ?-001-THUNDER ROAD
DR14 0.00 dB -15.56 dB 5:24 ?-002-ADAM RAISED A CAIN
DR13 -0.44 dB -16.22 dB 6:24 ?-003-SPIRIT IN THE NIGHT
DR14 -0.60 dB -16.66 dB 6:36 ?-004-SANDY
DR15 0.00 dB -16.99 dB 3:55 ?-005-PARADISE BY THE C
DR15 0.00 dB -17.91 dB 2:55 ?-006-FIRE
DR15 0.00 dB -18.64 dB 7:53 ?-007-GROWIN UP
DR13 -0.52 dB -15.59 dB 4:49 ?-008-IT'S HARD TO BE A SAINT IN THE CITY
--------------------------------------------------------------------------------

Number of tracks: 8
Official DR value: DR14

Samplerate: 44100 Hz
Channels: 2
Bits per sample: 16
Bitrate: 932 kbps
Codec: FLAC
================================================================================

For LP II
foobar2000 1.1.10 / Dynamic Range Meter 1.1.1
log date: 2013-10-02 08:26:05

--------------------------------------------------------------------------------
Analyzed: ? / ?
--------------------------------------------------------------------------------

DR Peak RMS Duration Track
--------------------------------------------------------------------------------
DR14 -0.35 dB -15.73 dB 7:32 ?-001-BACKSTREETS
DR13 -0.91 dB -15.86 dB 10:09 ?-002-ROSALITA
DR14 -0.89 dB -16.03 dB 4:56 ?-003-RAISE YOUR HAND
DR14 0.00 dB -15.73 dB 4:27 ?-004-HUNGRY HEART
DR13 -1.95 dB -15.55 dB 2:50 ?-005-TWO HEARTS
DR14 0.00 dB -15.81 dB 4:42 ?-006-CADILLAC RANCH
DR12 -1.12 dB -15.52 dB 3:54 ?-007-YOU CAN LOOK (BUT YOU BETTER NOT TOUCH)
DR13 -0.85 dB -17.60 dB 5:09 ?-008-INDEPENDENCE DAY
--------------------------------------------------------------------------------

Number of tracks: 8
Official DR value: DR13

Samplerate: 44100 Hz
Channels: 2
Bits per sample: 16
Bitrate: 855 kbps
Codec: FLAC
================================================================================

For LP III
foobar2000 1.1.10 / Dynamic Range Meter 1.1.1
log date: 2013-10-02 08:26:44

--------------------------------------------------------------------------------
Analyzed: ? / ?
--------------------------------------------------------------------------------

DR Peak RMS Duration Track
--------------------------------------------------------------------------------
DR13 -2.10 dB -16.46 dB 5:21 ?-001-BADLANDS
DR13 -0.04 dB -16.54 dB 5:16 ?-002-BECAUSE THE NIGHT
DR13 -0.77 dB -16.45 dB 3:16 ?-003-CANDY'S ROOM
DR14 -0.20 dB -16.00 dB 4:17 ?-004-DARKNESS ON THE EDGE OF TOWN
DR14 -2.35 dB -19.22 dB 8:12 ?-005-RACING IN THE STREET
DR13 -1.40 dB -18.78 dB 4:20 ?-006-THIS LAND IS YOUR LAND
DR12 -1.29 dB -16.91 dB 4:15 ?-007-NEBRASKA
DR13 -1.65 dB -17.25 dB 4:21 ?-008-JOHNNY 99
DR12 -2.10 dB -17.64 dB 5:11 ?-009-REASON TO BELIEVE
--------------------------------------------------------------------------------

Number of tracks: 9
Official DR value: DR13

Samplerate: 44100 Hz
Channels: 2
Bits per sample: 16
Bitrate: 852 kbps
Codec: FLAC
================================================================================

For LP IV
foobar2000 1.1.10 / Dynamic Range Meter 1.1.1
log date: 2013-10-02 08:27:12

--------------------------------------------------------------------------------
Analyzed: ? / ?
--------------------------------------------------------------------------------

DR Peak RMS Duration Track
--------------------------------------------------------------------------------
DR13 0.00 dB -15.05 dB 6:07 ?-001-BORN IN THE USA
DR14 0.00 dB -15.65 dB 5:10 ?-002-SEEDS
DR13 0.00 dB -17.01 dB 11:29 ?-003-THE RIVER
DR15 0.00 dB -17.95 dB 4:58 ?-004-WAR
DR13 -0.29 dB -15.20 dB 5:09 ?-005-DARLINGTON COUNTY
DR13 -0.47 dB -15.34 dB 4:01 ?-006-WORKING ON THE HIGHWAY
DR13 -0.62 dB -15.33 dB 5:32 ?-007-PROMISED LAND
--------------------------------------------------------------------------------

Number of tracks: 7
Official DR value: DR13

Samplerate: 44100 Hz
Channels: 2
Bits per sample: 16
Bitrate: 979 kbps
Codec: FLAC
================================================================================

For LP V
foobar2000 1.1.10 / Dynamic Range Meter 1.1.1
log date: 2013-10-02 08:27:44

--------------------------------------------------------------------------------
Analyzed: ? / ?
--------------------------------------------------------------------------------

DR Peak RMS Duration Track
--------------------------------------------------------------------------------
DR12 -1.27 dB -15.30 dB 6:56 ?-001-COVER ME
DR13 -0.53 dB -16.70 dB 4:23 ?-002-I'M ON FIRE
DR14 -0.34 dB -15.64 dB 4:27 ?-003-BOBBY JEAN
DR13 -1.26 dB -16.20 dB 5:03 ?-004-MY HOMETOWN
DR13 -0.13 dB -15.17 dB 5:10 ?-005-BORN TO RUN
DR12 -3.32 dB -18.54 dB 4:33 ?-006-NO SURRENDER
DR13 -1.43 dB -15.59 dB 4:18 ?-007-TENTH AVENUE FREEZEOUT
DR12 -1.94 dB -16.63 dB 6:25 ?-008-JERSEY GIRL
--------------------------------------------------------------------------------

Number of tracks: 8
Official DR value: DR13

Samplerate: 44100 Hz
Channels: 2
Bits per sample: 16
Bitrate: 838 kbps
Codec: FLAC
================================================================================
Доп. информация: Transfer: Pro-Ject Debut III Turntable (non USB) -> TEAC A-R600 Amplifier -> Sony MZ-RH1 (Linear PCM)
Правила, инструкции, FAQ!!!
Торрент  Добавлен [24 авг 2016, 12:07] Скачать торрент Магнет ссылка
Скачать торрент
[ Размер 17.67 КБ / Просмотров 10 ]

Статус
Проверен 
 
Размер  1.36 ГБ
Приватный: Нет (DHT включён)
.torrent скачан  0
 


     Отправить личное сообщение
   
Страница 1 из 1
Показать сообщения за:  Поле сортировки  
Начать новую тему Ответить на тему


Сейчас этот форум просматривают: нет зарегистрированных пользователей и гости: 0


Вы не можете начинать темы
Вы не можете отвечать на сообщения
Вы не можете редактировать свои сообщения
Вы не можете удалять свои сообщения
Вы не можете добавлять вложения

Перейти:  
cron