Начать новую тему Ответить на тему
Статистика раздачи
Размер: 1.62 ГБ | Добавлен: 24 авг 2016, 12:02 | Скачали: 0
Сидеров: 0  [0 байт/сек]    Личеров: 0  [0 байт/сек]
Пред. тема | След. тема 

Автор
Сообщение

СообщениеДобавлено: 24 авг 2016, 12:02 

Ответить с цитатой 

Art Abscons – Am Himmel Mit Feuer II

Жанр: Rock
Год выпуска: 2011
Лейбл: Fronte Nordico
Аудио кодек: WavPack
Тип рипа: image+.cue
Формат записи: 24/192
Формат раздачи: 24/192
Продолжительность: 00:44:08

Треклист:

SIDE A
Galathea am Himmel mit Feuer
A mon seul desir
Schwarzes Schiff
Magik
Jungfrau und Lilie
'The Cross of Abscon'

SIDE B
Der 13. Gast
Im 3. Raum
Freie Felder
Nur das Erinnern
Fur immer Hier
'The Sun Of Lilies'

Источник оцифровки: автором раздачи
Код класса состояния винила: NM
Устройство воспроизведения: Rega P3-24
Головка звукоснимателя: Rega Elys 2
Предварительный усилитель: Pro-Ject Tube Box II
АЦП: ASUS Xonar Essence ST
Программа-оцифровщик: Adobe Audition CS6
Обработка: Сжатие и теги - foobar2000
Код:
REM GENRE "Rock"
REM DATE 2011
REM DISCID AA I
REM COMMENT "Adobe Audition CS6 v5.0b708"
PERFORMER "Art Abscons"
TITLE "Am Himmel Mit Feuer II"
FILE "Art Abscons – Am Himmel Mit Feuer II.wv" WAVE
  TRACK 01 AUDIO
    TITLE "Galathea Am Himmel Mit Feuer"
    PERFORMER "Art Abscons"
    INDEX 01 00:00:00
  TRACK 02 AUDIO
    TITLE "A Mon Seul Desir"
    PERFORMER "Art Abscons"
    INDEX 01 03:27:49
  TRACK 03 AUDIO
    TITLE "Schwarzes Schiff"
    PERFORMER "Art Abscons"
    INDEX 01 08:19:06
  TRACK 04 AUDIO
    TITLE "Magik"
    PERFORMER "Art Abscons"
    INDEX 01 13:32:29
  TRACK 05 AUDIO
    TITLE "Jungfrau Und Lilie"
    PERFORMER "Art Abscons"
    INDEX 01 17:58:24
  TRACK 06 AUDIO
    TITLE "The Cross Of Abscon"
    PERFORMER "Art Abscons"
    INDEX 01 21:59:11
  TRACK 07 AUDIO
    TITLE "Der 13. Gast"
    PERFORMER "Art Abscons"
    INDEX 01 23:15:20
  TRACK 08 AUDIO
    TITLE "Im 3. Raum"
    PERFORMER "Art Abscons"
    INDEX 01 26:59:34
  TRACK 09 AUDIO
    TITLE "Freie Felder"
    PERFORMER "Art Abscons"
    INDEX 01 31:53:12
  TRACK 10 AUDIO
    TITLE "Nur Das Erinnern"
    PERFORMER "Art Abscons"
    INDEX 01 36:49:58
  TRACK 11 AUDIO
    TITLE "Fur Immer Hier"
    PERFORMER "Art Abscons"
    INDEX 01 38:50:37
  TRACK 12 AUDIO
    TITLE "The Sun Of Lilies"
    PERFORMER "Art Abscons"
    INDEX 01 43:26:67
Код:
Архив Art Abscons – Am Himmel Mit Feuer II (2011) (Fronte Nordico AA I) [NLV].iso.wv
2012-11-04 02:14    1685605452    1685605452  Art Abscons – Am Himmel Mit Feuer II.wv
2012-11-04 02:14          1399          1399  Art Abscons – Am Himmel Mit Feuer II.wv.cue
2012-11-04 01:25         46821         46821  back.jpg
2012-11-04 01:41         79243         79243  cd.jpg
2012-11-04 01:28        106954        106954  front.jpg
2012-11-04 02:14             0             0  Fronte Nordico AA I.sig
2012-11-04 01:42         Папка         Папка  Artwork
2012-11-04 01:18      29023175      29023175  Artwork\Front.png
2012-11-04 01:23      20086959      20086959  Artwork\Inside.png
2012-11-04 01:31       2722258       2722258  Artwork\Side A.png
2012-11-04 01:32       2845249       2845249  Artwork\Side B.png
2012-11-04 01:56         Папка         Папка  Ggraphs
2012-11-04 01:56        126936        126936  Ggraphs\Frequency Analysis.png
2012-11-04 01:55       1493946       1493946  Ggraphs\Spectral Frequency.png
2012-11-04 01:53        123685        123685  Ggraphs\Waveform.png
2012-11-04 01:35         Папка         Папка  Readme
2011-01-06 03:04          2793          2793  Readme\_[ENG] README No unpacking needed to play or burn this release.txt
2011-01-06 03:03          3328          3328  Readme\_[RUS] README No unpacking needed to play or burn this release.txt
#
# Всего:                Размер          Сжат  Файлы
#                   1742640584    1742640584  1
Доп. информация:
Первый релиз Fronte Nordico от одного из лучших современных молодых неофолковых проектов Art Abscons. "Am Himmel Mit Feuer II" - это полная переработка компакт-диска, выходившего годом раньше на Dead Scarlet Records. Большая часть треков были перезаписаны заново, многие сделаны в совершенно новых версиях, некоторые треки были добавлены, другие убраны, и трек-лист был целиком переработан. В результате получился абсолютно другой альбом - такой же зрелый, цельный и профессиональный, как лучшие неофолковые классические работы Sonne Hagal, Forseti и Orplid. Прекрасные мелодии, очаровательный голос, сложная работа со звуком и немецкие стихи, полные меланхолии, грусти и иронии, - всё это сплавлено в превосходную жемчужину редкой красоты, которую нельзя упустить любителям волшебного дарк-фолкового искусства! Обычное издание: тиснёная вырубленная толстая обложка из плотного серого картона с полноцветным изображением в центре, полноцветный 12" информационный лист, золотой винил в чёрном фирменном бумажном конверте Fronte Nordico.
Правила, инструкции, FAQ!!!
Торрент  Добавлен [24 авг 2016, 12:02] Скачать торрент Магнет ссылка
Скачать торрент
[ Размер 16.73 КБ / Просмотров 24 ]

Статус
Проверен 
 
Размер  1.62 ГБ
Приватный: Нет (DHT включён)
.torrent скачан  0
 


     Отправить личное сообщение
   
Страница 1 из 1
Показать сообщения за:  Поле сортировки  
Начать новую тему Ответить на тему


Сейчас этот форум просматривают: нет зарегистрированных пользователей и гости: 0


Вы не можете начинать темы
Вы не можете отвечать на сообщения
Вы не можете редактировать свои сообщения
Вы не можете удалять свои сообщения
Вы не можете добавлять вложения

Перейти:  
cron
cron