Начать новую тему Ответить на тему
Статистика раздачи
Размер: 3.31 ГБ | Добавлен: 24 авг 2016, 11:44 | Скачали: 3
Сидеров: 3  [0 байт/сек]    Личеров: 0  [0 байт/сек]
Пред. тема | След. тема 

Автор
Сообщение

СообщениеДобавлено: 24 авг 2016, 11:44 

Ответить с цитатой 

Argent
Nexus
Жанр: Rock
Носитель: LP
Год выпуска: 1974
Лейбл: Anchor Records ANCL 2011
Страна-производитель: UK
Аудио кодек: DSD128
Тип рипа: tracks
Формат записи: 1/5.6 MHz
Формат раздачи: 1/5.6 MHz
Продолжительность: 00:43:10

Треклист:
01. The Coming Of Kohoutek (3:02)
02. Once Around The Sun (2:47)
03. Infinite Wanderer (3:42)
04. Love (3:53)
05. Music From The Spheres (8:08)
06. Thunder And Lightning (5:05)
07. Keeper Of The Flame (6:01)
08. Man For All Reasons (4:44)
09. Gonna Meet My Maker (4:36)

Источник оцифровки: автором раздачи
Код класса состояния винила: Ex
Устройство воспроизведения: Spacedeck
Головка звукоснимателя: Sumiko Blue Point
Предварительный усилитель: EAR 834P
АЦП: Teac DA-3000
Программа-оцифровщик: DA3000
Обработка: VinylStudio
foobar2000 1.3.7 / Dynamic Range Meter 1.1.1
log date: 2015-02-18 21:59:04

--------------------------------------------------------------------------------
Analyzed: Argent / Nexus
--------------------------------------------------------------------------------

DR Peak RMS Duration Track
--------------------------------------------------------------------------------
DR12 -6.62 dB -21.62 dB 3:02 01-The Coming Of Kohoutek
DR10 -7.11 dB -22.63 dB 2:47 02-Once Around The Sun
DR11 -6.64 dB -19.70 dB 3:42 03-Infinite Wanderer
DR11 -6.71 dB -22.61 dB 3:53 04-Love
DR12 -6.68 dB -21.37 dB 8:08 05-Music From The Spheres
DR12 -6.71 dB -20.67 dB 5:05 06-Thunder And Lightning
DR12 -7.03 dB -22.13 dB 6:01 07-Keeper Of The Flame
DR13 -6.82 dB -24.38 dB 4:44 08-Man For All Reasons
DR13 -7.86 dB -23.63 dB 4:36 09-Gonna Meet My Maker
--------------------------------------------------------------------------------

Number of tracks: 9
Official DR value: DR12

Samplerate: 5644800 Hz / PCM Samplerate: 88200 Hz
Channels: 2
Bits per sample: 24
Bitrate: 11290 kbps
Codec: DSD128
================================================================================
Спасибо Толику за предоставленный материал.
Правила, инструкции, FAQ!!!
Торрент  Добавлен [24 авг 2016, 11:44] Скачать торрент Магнет ссылка
Скачать торрент
[ Размер 17.58 КБ / Просмотров 26 ]

Статус
Проверен 
 
Размер  3.31 ГБ
Приватный: Нет (DHT включён)
.torrent скачан  3
 


     Отправить личное сообщение
   
Страница 1 из 1
Показать сообщения за:  Поле сортировки  
Начать новую тему Ответить на тему


Сейчас этот форум просматривают: нет зарегистрированных пользователей и гости: 0


Вы не можете начинать темы
Вы не можете отвечать на сообщения
Вы не можете редактировать свои сообщения
Вы не можете удалять свои сообщения
Вы не можете добавлять вложения

Перейти:  
cron