Начать новую тему Ответить на тему
Статистика раздачи
Размер: 1.76 ГБ | Добавлен: 24 авг 2016, 12:39 | Скачали: 0
Сидеров: 2  [0 байт/сек]    Личеров: 1  [0 байт/сек]
Пред. тема | След. тема 

Автор
Сообщение

СообщениеДобавлено: 24 авг 2016, 12:39 

Ответить с цитатой 


Joe Satriani - Time Machine
Жанр: Rock/Alternative Rock, Hard Rock, Heavy Metal
Год выпуска: 1993
Лейбл: Relativity (88561-1177-4AC)
Страна-производитель: US
Аудио кодек: APE
Тип рипа: image+.cue
Формат записи: 32/192
Формат раздачи: 24/48
Общая продолжительность: 02:19:53
Тэги в .cue: прописаны
Источник оцифровки: автором раздачи
Код класса состояния магнитоленты: Ex
Устройство воспроизведения: SCD "Technics" RS-TR575
Магнитоголовка: RFKRSTR979
Предварительный усилитель: AMX - 100 (LTO®)
АЦП: Juli@
Программа-оцифровщик: Adobe Audition CS6 5.0.2.
Обработка: удаление артефактов

CS One (Studio):

01. Time Machine
02. The Mighty Turtle Head
03. All Alone (Left Alone)
04. Banana Mango II
05. Thinking Of You
06. Crazy
07. Speed Of Light
08. Baroque
09. Dweller On The Threshold
10. Banana Mango
11. Dreaming #11
12. I Am Become Death
13. Saying Goodbye
14. Woodstock Jam

CS Two (Live):

01. Satch Boogie
02. Summer Song
03. Flying In A Blue Dream
04. Cryin'
05. The Crush Of Love
06. Tears In The Rain
07. Always With Me, Always With You
08. Big Bad Moon
09. Surfing With The Alien
10. Rubina
11. Circles
12. Drum Solo
13. Lords Of Karma
14. Echo
Лейбл:
Каталожный номер: 88561-1177-4
Состав:
Bass – Joe Satriani (tracks: A4, B1, B2, B4), Matt Bissonette (tracks: A5, D1 to E1, E3 to F1), Stuart Hamm (tracks: A1 to A3, F2, F4, F5), Doug Wimbish (C3)
Drums – Gregg Bissonette (tracks: D1 to E1, E3 to F1), Jeff Campitelli (tracks: A4 to B1, B4), Jonathan Mover (tracks: A1 to A3, F2 to F5), Simon Phillips (C3)
Guitar – Joe Satriani
Keyboards – Joe Satriani (tracks: A1, A2, A4, B1), Phil Ashley (tracks: B1, B2, D1 to F1)
Producer – Joe Satriani, John Cuniberti (tracks: A1 to B4, C3, D1 to F5)
Recorded By – David Bianco (tracks: F2 to F5), John Cuniberti (tracks: D1, D2, D4 to F1)
Programmed By [Drums] – Bongo Bob Smith, Jeff Campitelli, John Cuniberti, (B2)
Organ – Tom Coster (A3)
Written-By – Billie Holiday, Mal Waldron (A3)








Код:
REM GENRE Rock/Alternative Rock, Hard Rock, Heavy Metal
REM DATE 1993
REM COMENT 2 Cassette, Album , Relativity (88561-1177-4АС), US
TITLE Time Machine
PERFORMER Joe Satriani
FILE "01. Time Machine - Side 1A.flac" WAVE
  TRACK 01 AUDIO
    TITLE "01. Time Machine"
    INDEX 01 00:00:00
  TRACK 02 AUDIO
    TITLE "02. The Mighty Turtle Head"
    INDEX 01 05:07:23
  TRACK 03 AUDIO
    TITLE "03. All Alone (Left Alone)"
    INDEX 01 10:21:06
  TRACK 04 AUDIO
    TITLE "04. Banana Mango II"
    INDEX 01 14:45:04
  TRACK 05 AUDIO
    TITLE "05. Thinking Of You"
    INDEX 01 20:49:63
  TRACK 06 AUDIO
    TITLE "06. Crazy"
    INDEX 01 24:47:65
  TRACK 07 AUDIO
    TITLE "07. Speed Of Light"
    INDEX 01 28:57:74
  TRACK 08 AUDIO
    TITLE "08. Baroque"
    INDEX 01 34:08:67
FILE "02. Time Machine - Side 1B.flac" WAVE
  TRACK 09 AUDIO
    TITLE "09. Dweller On The Threshold"
    INDEX 01 00:00:00
  TRACK 10 AUDIO
    TITLE "10. Banana Mango"
    INDEX 01 04:12:32
  TRACK 11 AUDIO
    TITLE "11. Dreaming #11"
    INDEX 01 06:59:16
  TRACK 12 AUDIO
    TITLE "12. I Am Become Death"
    INDEX 01 10:37:42
  TRACK 13 AUDIO
    TITLE "13. Saying Goodbye"
    INDEX 01 14:31:28
  TRACK 14 AUDIO
    TITLE "14. Woodstock Jam"
    INDEX 01 17:24:32
Код:
REM GENRE Rock/Alternative Rock, Hard Rock, Heavy Metal
REM DATE 1993
REM COMENT 2 Cassette, Album , Relativity (88561-1177-4АС), US
TITLE Time Machine
PERFORMER Joe Satriani
FILE "03. Time Machine - Side 2A.flac" WAVE
  TRACK 01 AUDIO
    TITLE "01. Satch Boogie"
    INDEX 01 00:00:00
  TRACK 02 AUDIO
    TITLE "02. Summer Song"
    INDEX 01 03:56:61
  TRACK 03 AUDIO
    TITLE "03. Flying In A Blue Dream"
    INDEX 01 09:55:27
  TRACK 04 AUDIO
    TITLE "04. Cryin'"
    INDEX 01 15:19:57
  TRACK 05 AUDIO
    TITLE "05. The Crush Of Love"
    INDEX 01 21:44:53
  TRACK 06 AUDIO
    TITLE "06. Tears In The Rain"
    INDEX 01 27:24:26
  TRACK 07 AUDIO
    TITLE "07. Always With Me, Always With You"
    INDEX 01 29:18:53
  TRACK 08 AUDIO
    TITLE "08. Big Bad Moon"
    INDEX 01 33:01:45
FILE "04. Time Machine - Side 2B.flac" WAVE
  TRACK 09 AUDIO
    TITLE "09. Surfing With The Alien"
    INDEX 01 00:00:00
  TRACK 10 AUDIO
    TITLE "10. Rubina"
    INDEX 01 04:42:14
  TRACK 11 AUDIO
    TITLE "11. Circles"
    INDEX 01 11:23:19
  TRACK 12 AUDIO
    TITLE "12. Drum Solo"
    INDEX 01 15:39:09
  TRACK 13 AUDIO
    TITLE "13. Lords Of Karma"
    INDEX 01 17:53:42
  TRACK 14 AUDIO
    TITLE "14. Echo"
    INDEX 01 23:36:24
Код:
REM GENRE Rock/Alternative Rock, Hard Rock, Heavy Metal
REM DATE 1993
REM COMENT 2 Cassette, Album , Relativity (88561-1177-4АС), US
TITLE Time Machine
PERFORMER Joe Satriani
FILE "01. Time Machine - Side 1A.flac" WAVE
  TRACK 01 AUDIO
    TITLE "01. Time Machine"
    INDEX 01 00:00:00
  TRACK 02 AUDIO
    TITLE "02. The Mighty Turtle Head"
    INDEX 01 05:07:23
  TRACK 03 AUDIO
    TITLE "03. All Alone (Left Alone)"
    INDEX 01 10:21:06
  TRACK 04 AUDIO
    TITLE "04. Banana Mango II"
    INDEX 01 14:45:04
  TRACK 05 AUDIO
    TITLE "05. Thinking Of You"
    INDEX 01 20:49:63
  TRACK 06 AUDIO
    TITLE "06. Crazy"
    INDEX 01 24:47:65
  TRACK 07 AUDIO
    TITLE "07. Speed Of Light"
    INDEX 01 28:57:74
  TRACK 08 AUDIO
    TITLE "08. Baroque"
    INDEX 01 34:08:67
FILE "02. Time Machine - Side 1B.flac" WAVE
  TRACK 09 AUDIO
    TITLE "09. Dweller On The Threshold"
    INDEX 01 00:00:00
  TRACK 10 AUDIO
    TITLE "10. Banana Mango"
    INDEX 01 04:12:32
  TRACK 11 AUDIO
    TITLE "11. Dreaming #11"
    INDEX 01 06:59:16
  TRACK 12 AUDIO
    TITLE "12. I Am Become Death"
    INDEX 01 10:37:42
  TRACK 13 AUDIO
    TITLE "13. Saying Goodbye"
    INDEX 01 14:31:28
  TRACK 14 AUDIO
    TITLE "14. Woodstock Jam"
    INDEX 01 17:24:32
FILE "03. Time Machine - Side 2A.flac" WAVE
  TRACK 15 AUDIO
    TITLE "01. Satch Boogie"
    INDEX 01 00:00:00
  TRACK 16 AUDIO
    TITLE "02. Summer Song"
    INDEX 01 03:56:61
  TRACK 17 AUDIO
    TITLE "03. Flying In A Blue Dream"
    INDEX 01 09:55:27
  TRACK 18 AUDIO
    TITLE "04. Cryin'"
    INDEX 01 15:19:57
  TRACK 19 AUDIO
    TITLE "05. The Crush Of Love"
    INDEX 01 21:44:53
  TRACK 20 AUDIO
    TITLE "06. Tears In The Rain"
    INDEX 01 27:24:26
  TRACK 21 AUDIO
    TITLE "07. Always With Me, Always With You"
    INDEX 01 29:18:53
  TRACK 22 AUDIO
    TITLE "08. Big Bad Moon"
    INDEX 01 33:01:45
FILE "04. Time Machine - Side 2B.flac" WAVE
  TRACK 23 AUDIO
    TITLE "09. Surfing With The Alien"
    INDEX 01 00:00:00
  TRACK 24 AUDIO
    TITLE "10. Rubina"
    INDEX 01 04:42:14
  TRACK 25 AUDIO
    TITLE "11. Circles"
    INDEX 01 11:23:19
  TRACK 26 AUDIO
    TITLE "12. Drum Solo"
    INDEX 01 15:39:09
  TRACK 27 AUDIO
    TITLE "13. Lords Of Karma"
    INDEX 01 17:53:42
  TRACK 28 AUDIO
    TITLE "14. Echo"
    INDEX 01 23:36:24

В папке раздачи.
Доп. информация: Звук несколько отличается от CD-шного - более мягкий.

Материал переоцифрован и представлен в лучшем качестве
(с более высокими битностью, частотой дискретизации и без детонации).
Торрент перезалит 29.10.2014.

Правила, инструкции, FAQ!!!
Торрент  Добавлен [24 авг 2016, 12:39] Скачать торрент Магнет ссылка
Скачать торрент
[ Размер 19.53 КБ / Просмотров 8 ]

Статус
Проверен 
 
Размер  1.76 ГБ
Приватный: Нет (DHT включён)
.torrent скачан  0
 


     Отправить личное сообщение
   
Страница 1 из 1
Показать сообщения за:  Поле сортировки  
Начать новую тему Ответить на тему


Сейчас этот форум просматривают: нет зарегистрированных пользователей и гости: 0


Вы не можете начинать темы
Вы не можете отвечать на сообщения
Вы не можете редактировать свои сообщения
Вы не можете удалять свои сообщения
Вы не можете добавлять вложения

Перейти:  
cron
cron