Начать новую тему Ответить на тему
Статистика раздачи
Размер: 6.06 ГБ | Добавлен: 25 май 2013, 13:19 | Скачали: 0
Сидеров: 1  [0 байт/сек]    Личеров: 0  [0 байт/сек]
Пред. тема | След. тема 

Автор
Сообщение

СообщениеДобавлено: 25 май 2013, 13:19 

Ответить с цитатой 

Robin Gibb, Barry Gibb, Andy Gibb - Collection Hits (13 Albums) (1970 - 2012)

Год: 1970 - 2012
Жанр: Rock, Disco
Продолжительность: 09:35:10

Кодек: FLAC, (image + .cue)
Битрейт: Lossless

Трек лист:
#777Продолжительность: 00:40:51
01. August October
02. Gone Gone Gone
03. The Worst Girl In This Town
04. Give Me A Smile
05. Down Came The Sun
06. Mother And Jack
07. Saved By The Bell
08. Weekend
09. Farmer Ferdinand Hudson
10. Lord Bless All
11. Most Of My Life
12. One Milllion Years
Код:
Код:
Exact Audio Copy V0.99 prebeta 5 from 4. May 2009

EAC extraction logfile from 5. March 2011, 23:50

Robin Gibb / Robin's Reign

Used drive : PIONEER DVD-RW DVR-112D Adapter: 2 ID: 0

Read mode : Secure
Utilize accurate stream : Yes
Defeat audio cache : Yes
Make use of C2 pointers : No

Read offset correction : 48
Overread into Lead-In and Lead-Out : No
Fill up missing offset samples with silence : Yes
Delete leading and trailing silent blocks : No
Null samples used in CRC calculations : Yes
Used interface : Installed external ASPI interface

Used output format : User Defined Encoder
Selected bitrate : 1024 kBit/s
Quality : High
Add ID3 tag : No
Command line compressor : C:\Program Files (x86)\Exact Audio Copy\Flac\flac.exe
Additional command line options : -5 -V -T "ARTIST=%a" -T "TITLE=%t" -T "ALBUM=%g" -T "DATE=%y" -T "TRACKNUMBER=%n" -T "GENRE=%m" -T "COMMENT=EAC FLAC -5" %s

TOC of the extracted CD

 Track | Start | Length | Start sector | End sector
 ---------------------------------------------------------
 1 | 0:00.33 | 2:34.42 | 33 | 11624
 2 | 2:35.00 | 2:36.63 | 11625 | 23387
 3 | 5:11.63 | 4:32.30 | 23388 | 43817
 4 | 9:44.18 | 3:09.30 | 43818 | 58022
 5 | 12:53.48 | 2:46.52 | 58023 | 70524
 6 | 15:40.25 | 4:06.28 | 70525 | 89002
 7 | 19:46.53 | 3:06.67 | 89003 | 103019
 8 | 22:53.45 | 2:12.28 | 103020 | 112947
 9 | 25:05.73 | 3:06.72 | 112948 | 126969
 10 | 28:12.70 | 3:16.45 | 126970 | 141714
 11 | 31:29.40 | 5:14.38 | 141715 | 165302
 12 | 36:44.03 | 4:07.25 | 165303 | 183852

Range status and errors

Selected range

 Filename F:\Robin Gibb - Robin's Reign - 1970\Robin Gibb - Robin's Reign.wav

 Peak level 88.9 %
 Range quality 100.0 %
 Test CRC CC2C1369
 Copy CRC CC2C1369
 Copy OK

No errors occurred

AccurateRip summary

Track 1 not present in database
Track 2 not present in database
Track 3 not present in database
Track 4 not present in database
Track 5 not present in database
Track 6 not present in database
Track 7 not present in database
Track 8 not present in database
Track 9 not present in database
Track 10 not present in database
Track 11 not present in database
Track 12 not present in database

None of the tracks are present in the AccurateRip database

End of status report
Код:
Код:
DON'T MODIFY THIS FILE

-----------------------

PERFORMER: auCDtect Task Manager, ver. 1.6.0 RC1 build 1.6.0.1
Copyright (c) 2008-2010 y-soft. All rights reserved
http:/y-soft.org

ANALYZER: auCDtect: CD records authenticity detector, version 0.8.2
Copyright (c) 2004 Oleg Berngardt. All rights reserved.
Copyright (c) 2004 Alexander Djourik. All rights reserved.

FILE: Robin Gibb - Robin's Reign.flac
  Size: 250230495 Hash: 035784C6D410DC9149F36C89197DBFAD Accuracy: -m0
  Conclusion: CDDA 100%
  Signature: B49CD88597EF55CEAB26E5D873AFAFD4BA559525
#777Продолжительность: 00:38:01
01. Juliet
02. How Old Are You
03. In And Out Of Love
04. Kathy's Gone
05. Don't Stop The Night
06. Another Lonely Night In New York
07. Danger
08. He Can't Love You
09. Hearts On Fire
10. I Believe In Miracles
Код:
Код:
Exact Audio Copy V1.0 beta 3 from 29. August 2011

EAC extraction logfile from 27. October 2012, 18:54

Robin Gibb / How Old Are You

Used drive : Optiarc BD RW BD-5300S Adapter: 3 ID: 0

Read mode : Secure
Utilize accurate stream : Yes
Defeat audio cache : Yes
Make use of C2 pointers : No

Read offset correction : 6
Overread into Lead-In and Lead-Out : No
Fill up missing offset samples with silence : Yes
Delete leading and trailing silent blocks : No
Null samples used in CRC calculations : Yes
Used interface : Installed external ASPI interface

Used output format : User Defined Encoder
Selected bitrate : 1024 kBit/s
Quality : High
Add ID3 tag : No
Command line compressor : C:\Program Files (x86)\Exact Audio Copy\Flac\flac.exe
Additional command line options : -8 -V -T "Date=%year%" -T "Genre=%genre%" -T "COMMENT=ripped by bvstudio®" %source%

TOC of the extracted CD

 Track | Start | Length | Start sector | End sector
 ---------------------------------------------------------
 1 | 0:00.32 | 3:48.00 | 32 | 17131
 2 | 3:48.32 | 3:11.55 | 17132 | 31511
 3 | 7:00.12 | 3:54.48 | 31512 | 49109
 4 | 10:54.60 | 3:38.42 | 49110 | 65501
 5 | 14:33.27 | 3:32.38 | 65502 | 81439
 6 | 18:05.65 | 4:14.40 | 81440 | 100529
 7 | 22:20.30 | 3:43.62 | 100530 | 117316
 8 | 26:04.17 | 4:08.45 | 117317 | 135961
 9 | 30:12.62 | 3:54.48 | 135962 | 153559
 10 | 34:07.35 | 3:53.25 | 153560 | 171059

Range status and errors

Selected range

 Filename F:\1983 - How Old Are You\Robin Gibb - How Old Are You.wav

 Peak level 85.5 %
 Extraction speed 6.8 X
 Range quality 100.0 %
 Test CRC 5613B23D
 Copy CRC 5613B23D
 Copy OK

No errors occurred

AccurateRip summary

Track 1 accurately ripped (confidence 3) [E000A443] (AR v1)
Track 2 accurately ripped (confidence 3) [FB85E5AE] (AR v1)
Track 3 accurately ripped (confidence 3) [1ECB8CD2] (AR v1)
Track 4 accurately ripped (confidence 3) [7526346A] (AR v1)
Track 5 accurately ripped (confidence 3) [AFC680E4] (AR v1)
Track 6 accurately ripped (confidence 3) [CBCD49D5] (AR v1)
Track 7 accurately ripped (confidence 3) [B382C1BB] (AR v1)
Track 8 accurately ripped (confidence 3) [779467A0] (AR v1)
Track 9 accurately ripped (confidence 3) [DFFFE150] (AR v1)
Track 10 accurately ripped (confidence 3) [4FCDC170] (AR v1)

All tracks accurately ripped

End of status report

==== Log checksum 0D84DB41B08CD12918D340D24DBD098A70316E708DB977383391278352AD8A78 ====
Код:
Код:
DON'T MODIFY THIS FILE

-----------------------

PERFORMER: auCDtect Task Manager, ver. 1.6.0 RC1 build 1.6.0.1
Copyright (c) 2008-2010 y-soft. All rights reserved
http:/y-soft.org

ANALYZER: auCDtect: CD records authenticity detector, version 0.8.2
Copyright (c) 2004 Oleg Berngardt. All rights reserved.
Copyright (c) 2004 Alexander Djourik. All rights reserved.

FILE: Robin Gibb - How Old Are You.flac
  Size: 249716777 Hash: A11E7C2898B698F172C8D5D66306FCF9 Accuracy: -m0
  Conclusion: CDDA 100%
  Signature: ED29D32A0F6F3C8B76A54C6CAA523EC96F33A955
#777Продолжительность: 00:35:30
1. Boys Do Fall In Love
2. In Your Diary
3. Robot
4. Rebecca
5. Secret Agent
6. Livin' In Another World
7. X-Ray Eyes
8. King Of Fools
9. Diamonds
Код:
Код:
Exact Audio Copy V0.99 prebeta 5 from 4. May 2009

Отчёт EAC об извлечении, выполненном 28. июля 2011, 17:47

Robin Gibb / Secret Agent

Дисковод: PLEXTOR CD-R PREMIUM2 Adapter: 0 ID: 0

Режим чтения : Достоверность
Использование точного потока : Да
Отключение кэша аудио : Да
Использование указателей C2 : Нет

Коррекция смещения при чтении : 30
Способность читать области Lead-in и Lead-out : Нет
Заполнение пропущенных сэмплов тишиной : Да
Удаление блоков с тишиной в начале и конце : Нет
При вычислениях CRC использовались нулевые сэмплы : Да
Интерфейс : Встроенный Win32-интерфейс для Win NT/2000

Выходной формат : Внутренние WAV-операции
Формат сэмплов : 44.100 Гц; 16 бит; стерео

TOC извлечённого CD

 Трек | Старт | Длительность | Начальный сектор | Конечный сектор
 ---------------------------------------------------------------------
 1 | 0:00.32 | 3:53.23 | 32 | 17529
 2 | 3:53.55 | 3:42.67 | 17530 | 34246
 3 | 7:36.47 | 3:45.15 | 34247 | 51136
 4 | 11:21.62 | 3:52.70 | 51137 | 68606
 5 | 15:14.57 | 4:55.65 | 68607 | 90796
 6 | 20:10.47 | 3:42.10 | 90797 | 107456
 7 | 23:52.57 | 4:00.50 | 107457 | 125506
 8 | 27:53.32 | 3:42.40 | 125507 | 142196
 9 | 31:35.72 | 3:54.13 | 142197 | 159759

Характеристики диапазона извлечения и сообщения об ошибках

Выбранный диапазон

 Имя файла C:\Robin Gibb - Secret Agent (Mirage 7 90170-2)\Robin Gibb - Secret Agent.wav

 Пиковый уровень 88.7 %
 Качество диапазона 100.0 %
 CRC теста DF2132E5
 CRC копии DF2132E5
 Копирование... OK

Ошибок не произошло

AccurateRip: сводка

Трек 1 нет в базе данных
Трек 2 нет в базе данных
Трек 3 нет в базе данных
Трек 4 нет в базе данных
Трек 5 нет в базе данных
Трек 6 нет в базе данных
Трек 7 нет в базе данных
Трек 8 нет в базе данных
Трек 9 нет в базе данных

Ни одного трека нет в базе AccurateRip

Конец отчёта
Код:
Код:
DON'T MODIFY THIS FILE

-----------------------

PERFORMER: auCDtect Task Manager, ver. 1.6.0 RC1 build 1.6.0.1
Copyright (c) 2008-2010 y-soft. All rights reserved
http:/y-soft.org

ANALYZER: auCDtect: CD records authenticity detector, version 0.8.2
Copyright (c) 2004 Oleg Berngardt. All rights reserved.
Copyright (c) 2004 Alexander Djourik. All rights reserved.

FILE: Robin Gibb - Secret Agent.flac
  Size: 226979091 Hash: A8593FF10663A3F80F156BF875B1EF99 Accuracy: -m0
  Conclusion: MPEG 95%
  Signature: 2CF9A7B5E666B9B7185E4B6E9E38E611C025568C
#777Продолжительность: 00:38:54
01. You Don't Say Us Anymore
02. Like A Fool
03. Heartbeat In Exile
04. Remedy
05. Toys
06. Someone To Believe In
07. Gone With The Wind
08. These Walls Have Eyes
09. Possession
10. Do You Love Her ?
Код:
Код:
Exact Audio Copy V1.0 beta 3 from 29. August 2011

EAC extraction logfile from 23. January 2013, 23:00

Robin Gibb / Walls Have Eyes

Used drive : PLEXTOR DVDR PX-716A Adapter: 0 ID: 0

Read mode : Secure
Utilize accurate stream : Yes
Defeat audio cache : Yes
Make use of C2 pointers : No

Read offset correction : 30
Overread into Lead-In and Lead-Out : Yes
Fill up missing offset samples with silence : Yes
Delete leading and trailing silent blocks : No
Null samples used in CRC calculations : Yes
Used interface : Native Win32 interface for Win NT & 2000

Used output format : User Defined Encoder
Selected bitrate : 896 kBit/s
Quality : High
Add ID3 tag : No
Command line compressor : C:\Program Files (x86)\FLAC\flac.exe
Additional command line options : -V -8 -T "Date=%year%" -T "Genre=%genre%" %source%

TOC of the extracted CD

 Track | Start | Length | Start sector | End sector
 ---------------------------------------------------------
 1 | 0:00.33 | 4:07.37 | 33 | 18594
 2 | 4:07.70 | 4:00.50 | 18595 | 36644
 3 | 8:08.45 | 4:16.00 | 36645 | 55844
 4 | 12:24.45 | 3:29.38 | 55845 | 71557
 5 | 15:54.08 | 5:02.37 | 71558 | 94244
 6 | 20:56.45 | 3:32.50 | 94245 | 110194
 7 | 24:29.20 | 3:37.13 | 110195 | 126482
 8 | 28:06.33 | 4:24.25 | 126483 | 146307
 9 | 32:30.58 | 3:10.50 | 146308 | 160607
 10 | 35:41.33 | 3:13.50 | 160608 | 175132

Range status and errors

Selected range

 Filename E:\mtorrent_flac\Robin Gibb - Walls Have Eyes (Polydor 827 592-2)\Robin Gibb - Walls Have Eyes.wav

 Peak level 77.1 %
 Extraction speed 1.4 X
 Range quality 100.0 %
 Test CRC 0D1D46D1
 Copy CRC 0D1D46D1
 Copy OK

No errors occurred

AccurateRip summary

Track 1 not present in database
Track 2 not present in database
Track 3 not present in database
Track 4 not present in database
Track 5 not present in database
Track 6 not present in database
Track 7 not present in database
Track 8 not present in database
Track 9 not present in database
Track 10 not present in database

None of the tracks are present in the AccurateRip database

End of status report

---- CUETools DB Plugin V2.1.3

[CTDB TOCID: tssudRH7uF6nnW32CMcuq8RN9LI-] found, Submit result: discs with pregaps not supported in this protocol version
[b131e56f] (3/3) Differs in 0 samples @
You can use CUETools to repair this rip.

==== Log checksum E6B08522B4C6652852826F0A5BC38DFE12CD5ACC5BF7E82AE8AF3DFD15F72688 ====
Код:
Код:
DON'T MODIFY THIS FILE

-----------------------

PERFORMER: auCDtect Task Manager, ver. 1.6.0 RC1 build 1.6.0.1
Copyright (c) 2008-2010 y-soft. All rights reserved
http:/y-soft.org

ANALYZER: auCDtect: CD records authenticity detector, version 0.8.2
Copyright (c) 2004 Oleg Berngardt. All rights reserved.
Copyright (c) 2004 Alexander Djourik. All rights reserved.

FILE: Robin Gibb - Walls Have Eyes.flac
  Size: 237225091 Hash: 8B88B1B7C83C856727CC5C1FFBC8C3BE Accuracy: -m0
  Conclusion: CDDA 100%
  Signature: C497979FE0824D2D02160253009DD8A21AC0F753
#777Продолжительность: 00:43:38
01. Please
02. Don't Wanna Wait Forever
03. Wish You Were Here
04. No Doubt
05. Special
06. Inseparable
07. Don't Rush
08. Watching You
09. Earth Angel
10. Lonely Night In New York
11. Love Hurts
Код:
Код:
Exact Audio Copy V0.99 prebeta 5 from 4. May 2009

EAC extraction logfile from 25. July 2010, 13:39

Robin Gibb / Magnet

Used drive : PIONEER DVD-RW DVR-112D Adapter: 2 ID: 0

Read mode : Secure
Utilize accurate stream : Yes
Defeat audio cache : Yes
Make use of C2 pointers : No

Read offset correction : 48
Overread into Lead-In and Lead-Out : No
Fill up missing offset samples with silence : Yes
Delete leading and trailing silent blocks : No
Null samples used in CRC calculations : Yes
Used interface : Installed external ASPI interface

Used output format : User Defined Encoder
Selected bitrate : 1024 kBit/s
Quality : High
Add ID3 tag : No
Command line compressor : C:\Program Files (x86)\Exact Audio Copy\Flac\flac.exe
Additional command line options : -5 -V -T "ARTIST=%a" -T "TITLE=%t" -T "ALBUM=%g" -T "DATE=%y" -T "TRACKNUMBER=%n" -T "GENRE=%m" -T "COMMENT=EAC FLAC -5" %s

TOC of the extracted CD

 Track | Start | Length | Start sector | End sector
 ---------------------------------------------------------
 1 | 0:00.00 | 4:35.62 | 0 | 20686
 2 | 4:35.62 | 4:23.14 | 20687 | 40425
 3 | 8:59.01 | 3:13.65 | 40426 | 54965
 4 | 12:12.66 | 3:40.15 | 54966 | 71480
 5 | 15:53.06 | 3:43.15 | 71481 | 88220
 6 | 19:36.21 | 3:32.68 | 88221 | 104188
 7 | 23:09.14 | 3:59.34 | 104189 | 122147
 8 | 27:08.48 | 3:59.43 | 122148 | 140115
 9 | 31:08.16 | 3:58.41 | 140116 | 158006
 10 | 35:06.57 | 4:34.32 | 158007 | 178588
 11 | 39:41.14 | 3:56.62 | 178589 | 196350

Range status and errors

Selected range

 Filename F:\Robin Gibb - Magnet - 2003\Robin Gibb - Magnet.wav

 Peak level 99.0 %
 Range quality 100.0 %
 Test CRC BDB9980F
 Copy CRC BDB9980F
 Copy OK

No errors occurred

AccurateRip summary

Track 1 accurately ripped (confidence 13) [D84F3D32]
Track 2 accurately ripped (confidence 13) [735BB6A2]
Track 3 accurately ripped (confidence 13) [A97BA9D3]
Track 4 accurately ripped (confidence 13) [97335AEF]
Track 5 accurately ripped (confidence 13) [645674E6]
Track 6 accurately ripped (confidence 13) [B03BC790]
Track 7 accurately ripped (confidence 13) [ADDBE2A0]
Track 8 accurately ripped (confidence 13) [623E6611]
Track 9 accurately ripped (confidence 13) [6E8D63A5]
Track 10 accurately ripped (confidence 13) [21C73C66]
Track 11 accurately ripped (confidence 13) [3A7CD496]

All tracks accurately ripped

End of status report
Код:
Код:
DON'T MODIFY THIS FILE

-----------------------

PERFORMER: auCDtect Task Manager, ver. 1.6.0 RC1 build 1.6.0.1
Copyright (c) 2008-2010 y-soft. All rights reserved
http:/y-soft.org

ANALYZER: auCDtect: CD records authenticity detector, version 0.8.2
Copyright (c) 2004 Oleg Berngardt. All rights reserved.
Copyright (c) 2004 Alexander Djourik. All rights reserved.

FILE: Robin Gibb - Magnet.flac
  Size: 318670136 Hash: 1C57FA47BA4F552816C8E75CEFF6ADB6 Accuracy: -m0
  Conclusion: CDDA 100%
  Signature: A58EBE4C655B50C93A178DF87F2A763F8AE4B634
#777Продолжительность: 01:06:17
01. Night Fever
02. I've Gotta Get A Message To You
03. How Deep Is Your Love
04. Nights On Broadway
05. Love Hurts
06. Massachusetts
07. My Lover's Prayer
08. New York Mining Disaster 1941
09. Please
10. Saved By The Bell
11. To Love Somebody
12. Words
13. You Win Again
14. Juliet
15. Tragedy
16. Jive Talkin'
17. Stayin' Alive
Код:
Код:
Exact Audio Copy V1.0 beta 3 from 29. August 2011

EAC extraction logfile from 28. October 2012, 22:45

Robin Gibb / With The Neue Philharmonie Frankfurt Orchestra (Live)

Used drive : Optiarc BD RW BD-5300S Adapter: 3 ID: 0

Read mode : Secure
Utilize accurate stream : Yes
Defeat audio cache : Yes
Make use of C2 pointers : No

Read offset correction : 6
Overread into Lead-In and Lead-Out : No
Fill up missing offset samples with silence : Yes
Delete leading and trailing silent blocks : No
Null samples used in CRC calculations : Yes
Used interface : Installed external ASPI interface

Used output format : User Defined Encoder
Selected bitrate : 1024 kBit/s
Quality : High
Add ID3 tag : No
Command line compressor : C:\Program Files (x86)\Exact Audio Copy\Flac\flac.exe
Additional command line options : -8 -V -T "Date=%year%" -T "Genre=%genre%" -T "COMMENT=ripped by bvstudio®" %source%

TOC of the extracted CD

 Track | Start | Length | Start sector | End sector
 ---------------------------------------------------------
 1 | 0:00.00 | 3:43.34 | 0 | 16758
 2 | 3:43.34 | 3:52.51 | 16759 | 34209
 3 | 7:36.10 | 4:32.70 | 34210 | 54679
 4 | 12:09.05 | 5:19.28 | 54680 | 78632
 5 | 17:28.33 | 4:02.26 | 78633 | 96808
 6 | 21:30.59 | 2:41.46 | 96809 | 108929
 7 | 24:12.30 | 4:02.73 | 108930 | 127152
 8 | 28:15.28 | 2:45.53 | 127153 | 139580
 9 | 31:01.06 | 3:44.70 | 139581 | 156450
 10 | 34:46.01 | 3:14.70 | 156451 | 171070
 11 | 38:00.71 | 3:23.52 | 171071 | 186347
 12 | 41:24.48 | 3:27.66 | 186348 | 201938
 13 | 44:52.39 | 4:00.68 | 201939 | 220006
 14 | 48:53.32 | 3:47.05 | 220007 | 237036
 15 | 52:40.37 | 5:27.53 | 237037 | 261614
 16 | 58:08.15 | 3:40.30 | 261615 | 278144
 17 | 61:48.45 | 4:28.57 | 278145 | 298301

Range status and errors

Selected range

 Filename F:\2005 - With The Neue Philharmonie Frankfurt Orchestra (Live)\Robin Gibb - With The Neue Philharmonie Frankfurt Orchestra (Live).wav

 Peak level 100.0 %
 Extraction speed 8.0 X
 Range quality 99.9 %
 Test CRC A575AA23
 Copy CRC A575AA23
 Copy OK

No errors occurred

AccurateRip summary

Track 1 accurately ripped (confidence 2) [8E74964F] (AR v2)
Track 2 accurately ripped (confidence 2) [B291F562] (AR v2)
Track 3 accurately ripped (confidence 2) [E437BCFE] (AR v2)
Track 4 accurately ripped (confidence 2) [3F1288CA] (AR v2)
Track 5 accurately ripped (confidence 2) [4B8F5833] (AR v2)
Track 6 accurately ripped (confidence 2) [4FF4D506] (AR v2)
Track 7 accurately ripped (confidence 2) [7CBBE910] (AR v2)
Track 8 accurately ripped (confidence 2) [15347D9D] (AR v2)
Track 9 accurately ripped (confidence 2) [DDD937B5] (AR v2)
Track 10 accurately ripped (confidence 2) [8A8EF6CA] (AR v2)
Track 11 accurately ripped (confidence 2) [AF868E40] (AR v2)
Track 12 accurately ripped (confidence 2) [A7D17BC9] (AR v2)
Track 13 accurately ripped (confidence 2) [D96A0A62] (AR v2)
Track 14 accurately ripped (confidence 2) [35ED594D] (AR v2)
Track 15 accurately ripped (confidence 2) [7D894044] (AR v2)
Track 16 accurately ripped (confidence 2) [96AC373E] (AR v2)
Track 17 accurately ripped (confidence 2) [2B96E673] (AR v2)

All tracks accurately ripped

End of status report

==== Log checksum 1CBDA5E3637C18B53E955A586E0270BA2390B7CE5AA2DD99FE677CD27847ADD9 ====
Код:
Код:
DON'T MODIFY THIS FILE

-----------------------

PERFORMER: auCDtect Task Manager, ver. 1.6.0 RC1 build 1.6.0.1
Copyright (c) 2008-2010 y-soft. All rights reserved
http:/y-soft.org

ANALYZER: auCDtect: CD records authenticity detector, version 0.8.2
Copyright (c) 2004 Oleg Berngardt. All rights reserved.
Copyright (c) 2004 Alexander Djourik. All rights reserved.

FILE: Robin Gibb - With The Neue Philharmonie Frankfurt Orchestra (Live).flac
  Size: 480759305 Hash: D4475AA1F42B54F57FFD4CFA078F966D Accuracy: -m0
  Conclusion: CDDA 100%
  Signature: 72B6872F72D355E56DC7762DE84E9F27FB2DEE1E
#777Продолжительность: 00:31:18
01. In The Bleak Midwinter
02. O Come All Ye Faithful
03. Silent Night
04. God Rest Ye Merry Gentlemen
05. Good King Wenceslas
06. Away In A Manger
07. Once In Royal David's City
08. Three Ships
09. Hark The Herald Angels Sing
10. Noel
Код:
Код:
Exact Audio Copy V0.99 prebeta 5 from 4. May 2009

EAC extraction logfile from 1. May 2011, 0:20

Robin Gibb / My Favorite Carols

Used drive : PIONEER DVD-RW DVR-112D Adapter: 2 ID: 0

Read mode : Secure
Utilize accurate stream : Yes
Defeat audio cache : Yes
Make use of C2 pointers : No

Read offset correction : 48
Overread into Lead-In and Lead-Out : No
Fill up missing offset samples with silence : Yes
Delete leading and trailing silent blocks : No
Null samples used in CRC calculations : Yes
Used interface : Installed external ASPI interface

Used output format : User Defined Encoder
Selected bitrate : 1024 kBit/s
Quality : High
Add ID3 tag : No
Command line compressor : C:\Program Files (x86)\Exact Audio Copy\Flac\flac.exe
Additional command line options : -5 -V -T "ARTIST=%a" -T "TITLE=%t" -T "ALBUM=%g" -T "DATE=%y" -T "TRACKNUMBER=%n" -T "GENRE=%m" -T "COMMENT=EAC FLAC -5" %s

TOC of the extracted CD

 Track | Start | Length | Start sector | End sector
 ---------------------------------------------------------
 1 | 0:00.00 | 4:01.30 | 0 | 18104
 2 | 4:01.30 | 2:59.70 | 18105 | 31599
 3 | 7:01.25 | 4:21.38 | 31600 | 51212
 4 | 11:22.63 | 2:40.33 | 51213 | 63245
 5 | 14:03.21 | 2:16.20 | 63246 | 73465
 6 | 16:19.41 | 2:38.47 | 73466 | 85362
 7 | 18:58.13 | 3:05.00 | 85363 | 99237
 8 | 22:03.13 | 1:21.67 | 99238 | 105379
 9 | 23:25.05 | 2:31.19 | 105380 | 116723
 10 | 25:56.24 | 5:20.34 | 116724 | 140757

Range status and errors

Selected range

 Filename F:\Robin Gibb - My Favourite Carols - 2007\Robin Gibb - My Favorite Carols.wav

 Peak level 98.7 %
 Range quality 100.0 %
 Test CRC 27AD124E
 Copy CRC 27AD124E
 Copy OK

No errors occurred

AccurateRip summary

Track 1 not present in database
Track 2 not present in database
Track 3 not present in database
Track 4 not present in database
Track 5 not present in database
Track 6 not present in database
Track 7 not present in database
Track 8 not present in database
Track 9 not present in database
Track 10 not present in database

None of the tracks are present in the AccurateRip database

End of status report
Код:
Код:
DON'T MODIFY THIS FILE

-----------------------

PERFORMER: auCDtect Task Manager, ver. 1.6.0 RC1 build 1.6.0.1
Copyright (c) 2008-2010 y-soft. All rights reserved
http:/y-soft.org

ANALYZER: auCDtect: CD records authenticity detector, version 0.8.2
Copyright (c) 2004 Oleg Berngardt. All rights reserved.
Copyright (c) 2004 Alexander Djourik. All rights reserved.

FILE: Robin Gibb - My Favorite Carols.flac
  Size: 183905809 Hash: 02C9BAA454397D4276DF1B445E2A64C4 Accuracy: -m0
  Conclusion: CDDA 99%
  Signature: 7CC6124A029BBC4F9EB2800C2C4B624E516F8A2A
#777Продолжительность: 01:01:08
01. Triumph (Shipbuilding)
02. Farewell (The Immigrant Song)
03. Maiden Voyage
04. New York Suite In C Major
05. Sub Astris (Under The Stars)
06. Kyrie
07. SOS (Tract)
08. Distress (Confutatis)
09. Salvation (Gradual)
10. Reflections
11. Daybreak (Performed By Mario Frangoulis)
12. Christmas Day (Performed By Isabel Suckling)
13. Libera Me
14. Don't Cry Alone (Performed By Robin Gibb)
15. In Paradisum (Awakening)
Код:
Код:
Exact Audio Copy V1.0 beta 3 from 29. August 2011

EAC extraction logfile from 27. October 2012, 19:21

Robin Gibb And RJ Gibb / The Titanic Requiem

Used drive : Optiarc BD RW BD-5300S Adapter: 3 ID: 0

Read mode : Secure
Utilize accurate stream : Yes
Defeat audio cache : Yes
Make use of C2 pointers : No

Read offset correction : 6
Overread into Lead-In and Lead-Out : No
Fill up missing offset samples with silence : Yes
Delete leading and trailing silent blocks : No
Null samples used in CRC calculations : Yes
Used interface : Installed external ASPI interface

Used output format : User Defined Encoder
Selected bitrate : 1024 kBit/s
Quality : High
Add ID3 tag : No
Command line compressor : C:\Program Files (x86)\Exact Audio Copy\Flac\flac.exe
Additional command line options : -8 -V -T "Date=%year%" -T "Genre=%genre%" -T "COMMENT=ripped by bvstudio®" %source%

TOC of the extracted CD

 Track | Start | Length | Start sector | End sector
 ---------------------------------------------------------
 1 | 0:00.00 | 4:06.34 | 0 | 18483
 2 | 4:06.34 | 3:16.35 | 18484 | 33218
 3 | 7:22.69 | 4:28.49 | 33219 | 53367
 4 | 11:51.43 | 6:05.69 | 53368 | 80811
 5 | 17:57.37 | 3:27.39 | 80812 | 96375
 6 | 21:25.01 | 2:58.02 | 96376 | 109727
 7 | 24:23.03 | 4:36.27 | 109728 | 130454
 8 | 28:59.30 | 4:28.41 | 130455 | 150595
 9 | 33:27.71 | 3:00.27 | 150596 | 164122
 10 | 36:28.23 | 3:19.51 | 164123 | 179098
 11 | 39:47.74 | 4:05.17 | 179099 | 197490
 12 | 43:53.16 | 3:54.11 | 197491 | 215051
 13 | 47:47.27 | 3:39.74 | 215052 | 231550
 14 | 51:27.26 | 3:25.69 | 231551 | 246994
 15 | 54:53.20 | 6:14.39 | 246995 | 275083

Range status and errors

Selected range

 Filename F:\2012 - The Titanic Requiem\Robin Gibb And RJ Gibb - The Titanic Requiem.wav

 Peak level 99.2 %
 Extraction speed 8.0 X
 Range quality 100.0 %
 Test CRC 491F2CD7
 Copy CRC 491F2CD7
 Copy OK

No errors occurred

AccurateRip summary

Track 1 not present in database
Track 2 not present in database
Track 3 not present in database
Track 4 not present in database
Track 5 not present in database
Track 6 not present in database
Track 7 not present in database
Track 8 not present in database
Track 9 not present in database
Track 10 not present in database
Track 11 not present in database
Track 12 not present in database
Track 13 not present in database
Track 14 not present in database
Track 15 not present in database

None of the tracks are present in the AccurateRip database

End of status report

==== Log checksum FAD35D9D47D98B4BF7819E308CBCE41E13AC27B5E5EF0E1D314EDFEECA48D0EF ====
Код:
Код:
DON'T MODIFY THIS FILE

-----------------------

PERFORMER: auCDtect Task Manager, ver. 1.6.0 RC1 build 1.6.0.1
Copyright (c) 2008-2010 y-soft. All rights reserved
http:/y-soft.org

ANALYZER: auCDtect: CD records authenticity detector, version 0.8.2
Copyright (c) 2004 Oleg Berngardt. All rights reserved.
Copyright (c) 2004 Alexander Djourik. All rights reserved.

FILE: Robin Gibb And RJ Gibb - The Titanic Requiem.flac
  Size: 320486523 Hash: F93C12B99A4F2AA82C687678EA8F042F Accuracy: -m0
  Conclusion: CDDA 99%
  Signature: 00FA4397D752A649CFE96EBB7D3E77BCE6FE0D13
#777Продолжительность: 00:47:20
01. I Am Your Driver
02. Fine Line
03. Face To Face
04. Shatterproof
05. Shine Shine
06. Lesson In Love
07. One Night (For Lovers)
08. Stay Alone
09. Temptation
10. She Says
11. The Hunter
Код:
Код:
Exact Audio Copy V0.99 prebeta 3 from 28. July 2007

EAC extraction logfile from 1. June 2009, 15:41

Barry Gibb / Now Voyager

Used drive : TSSTcorpCDDVDW SH-S203B Adapter: 7 ID: 0

Read mode : Secure
Utilize accurate stream : Yes
Defeat audio cache : Yes
Make use of C2 pointers : No

Read offset correction : 6
Overread into Lead-In and Lead-Out : No
Fill up missing offset samples with silence : Yes
Delete leading and trailing silent blocks : No
Null samples used in CRC calculations : Yes
Used interface : Installed external ASPI interface

Used output format : User Defined Encoder
Selected bitrate : 1024 kBit/s
Quality : High
Add ID3 tag : No
Command line compressor : C:\Program Files\FLAC\flac.exe
Additional command line options : -8 -V -T "ARTIST=%a" -T "TITLE=%t" -T "ALBUM=%g" -T "DATE=%y" -T "TRACKNUMBER=%n" -T "GENRE=%m" -T "COMMENT=%e" %s -o %d
Use compression offset : 48

TOC of the extracted CD

Track | Start | Length | Start sector | End sector
---------------------------------------------------------
1 | 0:00.32 | 4:47.43 | 32 | 21599
2 | 4:48.00 | 5:12.12 | 21600 | 45011
3 | 10:00.12 | 4:18.60 | 45012 | 64421
4 | 14:18.72 | 4:00.10 | 64422 | 82431
5 | 18:19.07 | 4:44.68 | 82432 | 103799
6 | 23:04.00 | 3:54.37 | 103800 | 121386
7 | 26:58.37 | 4:17.63 | 121387 | 140724
8 | 31:16.25 | 3:52.52 | 140725 | 158176
9 | 35:09.02 | 3:33.70 | 158177 | 174221
10 | 38:42.72 | 4:09.35 | 174222 | 192931
11 | 42:52.32 | 4:27.70 | 192932 | 213026

Range status and errors

Selected range

Filename T:\CD\Barry Gibb - Now Voyager\Barry Gibb - Now Voyager.wav

Peak level 85.1 %
Range quality 100.0 %
Copy CRC FC3B3C66
Copy OK

No errors occurred

AccurateRip summary

Track 1 not present in database
Track 2 not present in database
Track 3 not present in database
Track 4 not present in database
Track 5 not present in database
Track 6 not present in database
Track 7 not present in database
Track 8 not present in database
Track 9 not present in database
Track 10 not present in database
Track 11 not present in database

None of the tracks are present in the AccurateRip database

End of status report
Код:
Код:
DON'T MODIFY THIS FILE

-----------------------

PERFORMER: auCDtect Task Manager, ver. 1.6.0 RC1 build 1.6.0.1
Copyright (c) 2008-2010 y-soft. All rights reserved
http:/y-soft.org

ANALYZER: auCDtect: CD records authenticity detector, version 0.8.2
Copyright (c) 2004 Oleg Berngardt. All rights reserved.
Copyright (c) 2004 Alexander Djourik. All rights reserved.

FILE: Barry Gibb - Now Voyager.flac
  Size: 281078955 Hash: 95A33AE23794DD4F0F7CCE7B176F92B0 Accuracy: -m0
  Conclusion: MPEG 95%
  Signature: 4B28424EBCA14666AE62860FED98A52D00F8508F
#777Продолжительность: 00:42:35
01. System Of Love
02. Childhood Days
03. My Eternal Love
04. Moonlight Madness
05. Where Tomorrow Is
06. Celebration De La Vie
07. Chain Reaction (performed by Diana Ross)
08. Cover You
09. Not In Love At All
10. Letting Go
Код:
Код:
Exact Audio Copy V0.99 prebeta 5 from 4. May 2009

EAC extraction logfile from 27. September 2010, 13:13

Barry Gibb / Hawks

Used drive : PIONEER DVD-RW DVR-112D Adapter: 2 ID: 0

Read mode : Secure
Utilize accurate stream : Yes
Defeat audio cache : Yes
Make use of C2 pointers : No

Read offset correction : 48
Overread into Lead-In and Lead-Out : No
Fill up missing offset samples with silence : Yes
Delete leading and trailing silent blocks : No
Null samples used in CRC calculations : Yes
Used interface : Installed external ASPI interface

Used output format : User Defined Encoder
Selected bitrate : 1024 kBit/s
Quality : High
Add ID3 tag : No
Command line compressor : C:\Program Files (x86)\Exact Audio Copy\Flac\flac.exe
Additional command line options : -5 -V -T "ARTIST=%a" -T "TITLE=%t" -T "ALBUM=%g" -T "DATE=%y" -T "TRACKNUMBER=%n" -T "GENRE=%m" -T "COMMENT=EAC FLAC -5" %s

TOC of the extracted CD

 Track | Start | Length | Start sector | End sector
 ---------------------------------------------------------
 1 | 0:00.37 | 4:00.28 | 37 | 18064
 2 | 4:00.65 | 3:33.65 | 18065 | 34104
 3 | 7:34.55 | 4:30.32 | 34105 | 54386
 4 | 12:05.12 | 5:13.20 | 54387 | 77881
 5 | 17:18.32 | 4:13.58 | 77882 | 96914
 6 | 21:32.15 | 4:25.57 | 96915 | 116846
 7 | 25:57.72 | 3:49.55 | 116847 | 134076
 8 | 29:47.52 | 4:46.65 | 134077 | 155591
 9 | 34:34.42 | 4:19.70 | 155592 | 175086
 10 | 38:54.37 | 3:40.73 | 175087 | 191659

Range status and errors

Selected range

 Filename F:\Barry Gibb - Hawks - 1988 (Japan)\Barry Gibb - Hawks.wav

 Peak level 99.9 %
 Range quality 100.0 %
 Test CRC 7732EE05
 Copy CRC 7732EE05
 Copy OK

No errors occurred

AccurateRip summary

Track 1 accurately ripped (confidence 2) [728E3614]
Track 2 accurately ripped (confidence 2) [D3426EE4]
Track 3 accurately ripped (confidence 2) [8A7BC674]
Track 4 accurately ripped (confidence 2) [32467045]
Track 5 accurately ripped (confidence 2) [E238D5A9]
Track 6 accurately ripped (confidence 2) [4B20EB35]
Track 7 accurately ripped (confidence 2) [A91F6B59]
Track 8 accurately ripped (confidence 2) [123BB0DF]
Track 9 accurately ripped (confidence 2) [689962EE]
Track 10 accurately ripped (confidence 2) [6076735C]

All tracks accurately ripped

End of status report
Код:
Код:
DON'T MODIFY THIS FILE

-----------------------

PERFORMER: auCDtect Task Manager, ver. 1.6.0 RC1 build 1.6.0.1
Copyright (c) 2008-2010 y-soft. All rights reserved
http:/y-soft.org

ANALYZER: auCDtect: CD records authenticity detector, version 0.8.2
Copyright (c) 2004 Oleg Berngardt. All rights reserved.
Copyright (c) 2004 Alexander Djourik. All rights reserved.

FILE: Barry Gibb - Hawks.flac
  Size: 282130881 Hash: 8BB5F55EF8D2DF6E88F6487183088484 Accuracy: -m0
  Conclusion: CDDA 100%
  Signature: 8F6FCC353AFDFCB6FE6326EBA504854F502FB616
#777Продолжительность: 00:38:36
01. I Just Want To Be Your Everything
02. Words And Music
03. Dance To The Light Of The Morning
04. Too Many Looks In Your Eyes
05. Starlight
06. (Love Is) Thicker Than Water
07. Flowing Rivers
08. Come Home For The Winter
09. Let It Be Me [0:03:34.55]
10. In The End
Код:
Код:
Exact Audio Copy V1.0 beta 3 from 29. August 2011

EAC extraction logfile from 26. June 2012, 14:00

Andy Gibb / Flowing Rivers

Used drive : Optiarc BD RW BD-5300S Adapter: 3 ID: 0

Read mode : Secure
Utilize accurate stream : Yes
Defeat audio cache : Yes
Make use of C2 pointers : No

Read offset correction : 6
Overread into Lead-In and Lead-Out : No
Fill up missing offset samples with silence : Yes
Delete leading and trailing silent blocks : No
Null samples used in CRC calculations : Yes
Used interface : Installed external ASPI interface

Used output format : User Defined Encoder
Selected bitrate : 1024 kBit/s
Quality : High
Add ID3 tag : No
Command line compressor : C:\Program Files (x86)\Exact Audio Copy\Flac\flac.exe
Additional command line options : -8 -V -T "Date=%year%" -T "Genre=%genre%" -T "COMMENT=ripped by bvstudio®" %source%

TOC of the extracted CD

 Track | Start | Length | Start sector | End sector
 ---------------------------------------------------------
 1 | 0:00.00 | 3:47.50 | 0 | 17074
 2 | 3:47.50 | 4:41.37 | 17075 | 38186
 3 | 8:29.12 | 3:21.00 | 38187 | 53261
 4 | 11:50.12 | 4:15.00 | 53262 | 72386
 5 | 16:05.12 | 3:36.28 | 72387 | 88614
 6 | 19:41.40 | 4:18.47 | 88615 | 108011
 7 | 24:00.12 | 3:36.68 | 108012 | 124279
 8 | 27:37.05 | 4:05.32 | 124280 | 142686
 9 | 31:42.37 | 3:34.55 | 142687 | 158791
 10 | 35:17.17 | 3:18.70 | 158792 | 173711

Range status and errors

Selected range

 Filename F:\Bee Gees, Robin, Barry, Andy\1977 - Flowing Rivers - Andy Gibb\Andy Gibb - Flowing Rivers.wav

 Peak level 100.0 %
 Extraction speed 3.0 X
 Range quality 100.0 %
 Test CRC D1E397DF
 Copy CRC D1E397DF
 Copy OK

No errors occurred

AccurateRip summary

Track 1 not present in database
Track 2 not present in database
Track 3 not present in database
Track 4 not present in database
Track 5 not present in database
Track 6 not present in database
Track 7 not present in database
Track 8 not present in database
Track 9 not present in database
Track 10 not present in database

None of the tracks are present in the AccurateRip database

End of status report

==== Log checksum 0C1F6BDA599B38037EA00B43BF045A5807EE106992B9F01EE4B45BB004D22E50 ====
Код:
Код:
DON'T MODIFY THIS FILE

-----------------------

PERFORMER: auCDtect Task Manager, ver. 1.6.0 RC1 build 1.6.0.1
Copyright (c) 2008-2010 y-soft. All rights reserved
http:/y-soft.org

ANALYZER: auCDtect: CD records authenticity detector, version 0.8.2
Copyright (c) 2004 Oleg Berngardt. All rights reserved.
Copyright (c) 2004 Alexander Djourik. All rights reserved.

FILE: Andy Gibb - Flowing Rivers.flac
  Size: 264108772 Hash: 28CB1F6E888F786891FBE30FA39F29BA Accuracy: -m0
  Conclusion: CDDA 100%
  Signature: 21A7B17BEBD3103F43657D263641747DD4477145
#777Продолжительность: 00:41:03
01. Shadow Dancing
02. Why
03. Fool For A Night
04. An Everlasting Love
05. (Our Love) Don't Throw It All Away
06. One More Look At The Night
07. Melody
08. I Go For You
09. Good Feeling
10. Waiting For You
Код:
Код:
Exact Audio Copy V1.0 beta 3 from 29. August 2011

EAC extraction logfile from 26. June 2012, 14:31

Andy Gibb / Shadow Dancing

Used drive : Optiarc BD RW BD-5300S Adapter: 3 ID: 0

Read mode : Secure
Utilize accurate stream : Yes
Defeat audio cache : Yes
Make use of C2 pointers : No

Read offset correction : 6
Overread into Lead-In and Lead-Out : No
Fill up missing offset samples with silence : Yes
Delete leading and trailing silent blocks : No
Null samples used in CRC calculations : Yes
Used interface : Installed external ASPI interface

Used output format : User Defined Encoder
Selected bitrate : 1024 kBit/s
Quality : High
Add ID3 tag : No
Command line compressor : C:\Program Files (x86)\Exact Audio Copy\Flac\flac.exe
Additional command line options : -8 -V -T "Date=%year%" -T "Genre=%genre%" -T "COMMENT=ripped by bvstudio®" %source%

TOC of the extracted CD

 Track | Start | Length | Start sector | End sector
 ---------------------------------------------------------
 1 | 0:00.32 | 4:36.00 | 32 | 20731
 2 | 4:36.32 | 4:31.40 | 20732 | 41096
 3 | 9:07.72 | 3:22.63 | 41097 | 56309
 4 | 12:30.60 | 4:10.27 | 56310 | 75086
 5 | 16:41.12 | 4:10.15 | 75087 | 93851
 6 | 20:51.27 | 3:47.05 | 93852 | 110881
 7 | 24:38.32 | 4:03.60 | 110882 | 129166
 8 | 28:42.17 | 4:19.33 | 129167 | 148624
 9 | 33:01.50 | 3:48.40 | 148625 | 165764
 10 | 36:50.15 | 4:13.37 | 165765 | 184776

Range status and errors

Selected range

 Filename F:\Bee Gees, Robin, Barry, Andy\1978 - Shadow Dancing - Andy Gibb\Andy Gibb - Shadow Dancing.wav

 Peak level 100.0 %
 Extraction speed 3.0 X
 Range quality 100.0 %
 Test CRC C5F4EFEE
 Copy CRC C5F4EFEE
 Copy OK

No errors occurred

AccurateRip summary

Track 1 accurately ripped (confidence 4) [2EA5766B] (AR v1)
Track 2 accurately ripped (confidence 4) [94396492] (AR v1)
Track 3 accurately ripped (confidence 4) [3B7C18DE] (AR v1)
Track 4 accurately ripped (confidence 4) [7327A443] (AR v1)
Track 5 accurately ripped (confidence 4) [2E04E273] (AR v1)
Track 6 accurately ripped (confidence 4) [7B834CF9] (AR v1)
Track 7 accurately ripped (confidence 4) [13C3712D] (AR v1)
Track 8 accurately ripped (confidence 4) [71313A13] (AR v1)
Track 9 accurately ripped (confidence 4) [94304299] (AR v1)
Track 10 accurately ripped (confidence 4) [40EEDD54] (AR v1)

All tracks accurately ripped

End of status report

==== Log checksum 0F353D4ABFEDCDB29FC2635B085E17F4F996392F4DEA13195461E5AB6CEDD4F5 ====
Код:
Код:
DON'T MODIFY THIS FILE

-----------------------

PERFORMER: auCDtect Task Manager, ver. 1.6.0 RC1 build 1.6.0.1
Copyright (c) 2008-2010 y-soft. All rights reserved
http:/y-soft.org

ANALYZER: auCDtect: CD records authenticity detector, version 0.8.2
Copyright (c) 2004 Oleg Berngardt. All rights reserved.
Copyright (c) 2004 Alexander Djourik. All rights reserved.

FILE: Andy Gibb - Shadow Dancing.flac
  Size: 273744546 Hash: 819D8327E9A90AE2793AB6EBA718716D Accuracy: -m0
  Conclusion: CDDA 100%
  Signature: F529C50012C07FB6EC7ABBEDD0BDDB9D28B7AE25
#777Продолжительность: 00:50:01
01. Man on Fire
02. I Just Want to Be Your Everything
03. (Love Is) Thicker Than Water
04. Flowing Rivers
05. Shadow Dancing
06. An Everlasting Love
07. (Our Love) Don't Throw It All Away
08. Desire
09. After Dark
10. I Can't Help It
11. Time Is Time
12. Me (Without You)
Код:
Код:
Exact Audio Copy V1.0 beta 3 from 29. August 2011

EAC extraction logfile from 26. June 2012, 13:28

Andy Gibb / Andy Gibb

Used drive : Optiarc BD RW BD-5300S Adapter: 3 ID: 0

Read mode : Secure
Utilize accurate stream : Yes
Defeat audio cache : Yes
Make use of C2 pointers : No

Read offset correction : 6
Overread into Lead-In and Lead-Out : No
Fill up missing offset samples with silence : Yes
Delete leading and trailing silent blocks : No
Null samples used in CRC calculations : Yes
Used interface : Installed external ASPI interface

Used output format : User Defined Encoder
Selected bitrate : 1024 kBit/s
Quality : High
Add ID3 tag : No
Command line compressor : C:\Program Files (x86)\Exact Audio Copy\Flac\flac.exe
Additional command line options : -8 -V -T "Date=%year%" -T "Genre=%genre%" -T "COMMENT=ripped by bvstudio®" %source%

TOC of the extracted CD

 Track | Start | Length | Start sector | End sector
 ---------------------------------------------------------
 1 | 0:00.37 | 5:21.50 | 37 | 24161
 2 | 5:22.12 | 3:47.13 | 24162 | 41199
 3 | 9:09.25 | 4:15.45 | 41200 | 60369
 4 | 13:24.70 | 3:39.05 | 60370 | 76799
 5 | 17:04.00 | 4:33.07 | 76800 | 97281
 6 | 21:37.07 | 4:08.35 | 97282 | 115916
 7 | 25:45.42 | 4:07.58 | 115917 | 134499
 8 | 29:53.25 | 4:29.17 | 134500 | 154691
 9 | 34:22.42 | 4:21.60 | 154692 | 174326
 10 | 38:44.27 | 4:08.03 | 174327 | 192929
 11 | 42:52.30 | 3:43.10 | 192930 | 209664
 12 | 46:35.40 | 3:41.10 | 209665 | 226249

Range status and errors

Selected range

 Filename F:\Bee Gees, Robin, Barry, Andy\1992 - Andy Gibb - Andy Gibb (Japan)\Andy Gibb - Andy Gibb.wav

 Peak level 100.0 %
 Extraction speed 1.9 X
 Range quality 100.0 %
 Test CRC 9AB4BDEA
 Copy CRC 9AB4BDEA
 Copy OK

No errors occurred

AccurateRip summary

Track 1 not present in database
Track 2 not present in database
Track 3 not present in database
Track 4 not present in database
Track 5 not present in database
Track 6 not present in database
Track 7 not present in database
Track 8 not present in database
Track 9 not present in database
Track 10 not present in database
Track 11 not present in database
Track 12 not present in database

None of the tracks are present in the AccurateRip database

End of status report

==== Log checksum F37F72CDA83A5C8EAE1A904F2AFBA145DE94B11F8F0643E408B206A94B143A57 ====
Код:
Код:
DON'T MODIFY THIS FILE

-----------------------

PERFORMER: auCDtect Task Manager, ver. 1.6.0 RC1 build 1.6.0.1
Copyright (c) 2008-2010 y-soft. All rights reserved
http:/y-soft.org

ANALYZER: auCDtect: CD records authenticity detector, version 0.8.2
Copyright (c) 2004 Oleg Berngardt. All rights reserved.
Copyright (c) 2004 Alexander Djourik. All rights reserved.

FILE: Andy Gibb - Andy Gibb.flac
  Size: 326062472 Hash: 4E901276EB31B4FAD5D2DFB49C2B8AEA Accuracy: -m0
  Conclusion: CDDA 85%
  Signature: E4106DDF33A1A681324E042FCA688CD20D331B8B
Правила, инструкции, FAQ!!!
Торрент  Добавлен [25 май 2013, 13:19] Скачать торрент Магнет ссылка
Скачать торрент
[ Размер 29.86 КБ / Просмотров 90 ]

Статус  
 
Размер  6.06 ГБ
Приватный: Нет (DHT включён)
.torrent скачан  0
 


     Отправить личное сообщение
   
Страница 1 из 1
Показать сообщения за:  Поле сортировки  
Начать новую тему Ответить на тему


Сейчас этот форум просматривают: нет зарегистрированных пользователей и гости: 0


Вы не можете начинать темы
Вы не можете отвечать на сообщения
Вы не можете редактировать свои сообщения
Вы не можете удалять свои сообщения
Вы не можете добавлять вложения

Перейти:  
cron
cron