Начать новую тему Ответить на тему
Статистика раздачи
Размер: 1.07 ГБ | Добавлен: 24 ноя 2019, 15:44 | Скачали: 6
Сидеров: 35  [0 байт/сек]    Личеров: 11  [0 байт/сек]
Пред. тема | След. тема 

Автор
Сообщение

СообщениеДобавлено: 24 ноя 2019, 15:44 

Ответить с цитатой 

Robbie Williams - The Christmas Present (Deluxe)


Формат записи/Источник записи: [TR24][OF]
Наличие водяных знаков: Нет
Год издания: 2019
Жанр: Pop
Издатель (лейбл): Columbia
Продолжительность: 01:32:10
Наличие сканов в содержимом раздачи: Только обложка альбома
Контейнер: FLAC (*.flac)
Тип рипа: tracks
Разрядность: 24/44.1
Формат: PCM
Количество каналов: 2.0
Источник (релизер): highresaudio.com
Треклист
1. Winter Wonderland (2:18)
2. Merry Xmas Everybody (3:34)
3. Let It Snow! Let It Snow! Let It Snow! (1:57)
4. The Christmas Song (Chestnuts Roasting on an Open Fire) (3:12)
5. Coco's Christmas Lullaby (2:55)
6. Rudolph (3:40)
7. Yeah! It's Christmas (2:48)
8. It's a Wonderful Life (2:52)
9. Let's Not Go Shopping (3:09)
10. Santa Baby (feat. Helene Fischer) (3:27)
11. Best Christmas Ever (3:46)
12. One Last Christmas (3:33)
13. Coco's Christmas Lullaby Reprise (1:15)
14. Time for Change (3:30)
15. Idlewild (4:08)
16. Darkest Night (3:19)
17. Fairytales (3:34)
18. Christmas (Baby Please Come Home) [feat. Bryan Adams] (2:44)
19. Bad Sharon (feat. Tyson Fury) (3:41)
20. Happy Birthday Jesus Christ (3:16)
21. New Year's Day (3:41)
22. Snowflakes (3:41)
23. Home (4:11)
24. Soul Transmission (4:14)
25. I Believe in Father Christmas (Bonus Track) (3:10)
26. Not Christmas (Bonus Track) (3:25)
27. Merry Kissmas (Bonus Track) (2:42)
28. It Takes Two (Bonus Track) (4:22)
Код:
foobar2000 1.4.8 / Dynamic Range Meter 1.1.1
log date: 2019-11-21 22:08:00
--------------------------------------------------------------------------------
Analyzed: Robbie Williams / The Christmas Present (Deluxe)
--------------------------------------------------------------------------------
DR         Peak         RMS     Duration Track
--------------------------------------------------------------------------------
DR9       -1.28 dB   -11.95 dB      2:18 01-Winter Wonderland
DR9       -1.01 dB   -10.64 dB      3:34 02-Merry Xmas Everybody
DR10      -1.32 dB   -12.81 dB      1:57 03-Let It Snow! Let It Snow! Let It Snow!
DR12      -1.42 dB   -16.17 dB      3:12 04-The Christmas Song (Chestnuts Roasting on an Open Fire)
DR11      -1.38 dB   -13.69 dB      2:55 05-Coco's Christmas Lullaby
DR7       -1.01 dB    -9.63 dB      3:40 06-Rudolph
DR11      -1.01 dB   -14.65 dB      2:48 07-Yeah! It's Christmas
DR8       -1.01 dB    -9.88 dB      2:52 08-It's a Wonderful Life
DR10      -1.01 dB   -12.72 dB      3:09 09-Let's Not Go Shopping
DR10      -1.03 dB   -11.94 dB      3:27 10-Santa Baby (feat. Helene Fischer)
DR7       -1.21 dB   -10.74 dB      3:46 11-Best Christmas Ever
DR8       -1.10 dB    -9.77 dB      3:33 12-One Last Christmas
DR12      -1.05 dB   -15.07 dB      1:15 13-Coco's Christmas Lullaby Reprise
DR9       -1.24 dB   -12.39 dB      3:30 14-Time for Change
DR9       -1.20 dB   -11.79 dB      4:08 15-Idlewild
DR9       -1.01 dB   -11.37 dB      3:19 16-Darkest Night
DR9       -1.39 dB   -12.56 dB      3:34 17-Fairytales
DR8       -1.01 dB   -10.11 dB      2:44 18-Christmas (Baby Please Come Home) [feat. Bryan Adams]
DR11      -1.17 dB   -13.64 dB      3:41 19-Bad Sharon (feat. Tyson Fury)
DR9       -1.01 dB   -11.07 dB      3:16 20-Happy Birthday Jesus Christ
DR8       -1.01 dB   -10.85 dB      3:41 21-New Year's Day
DR9       -1.01 dB   -11.21 dB      3:41 22-Snowflakes
DR9       -1.01 dB   -12.46 dB      4:11 23-Home
DR8       -1.01 dB   -11.40 dB      4:14 24-Soul Transmission
DR11      -1.01 dB   -15.06 dB      3:10 25-I Believe in Father Christmas (Bonus Track)
DR7       -2.23 dB   -10.57 dB      3:25 26-Not Christmas (Bonus Track)
DR6       -1.01 dB    -9.00 dB      2:42 27-Merry Kissmas (Bonus Track)
DR7       -1.40 dB   -10.06 dB      4:22 28-It Takes Two (Bonus Track)
--------------------------------------------------------------------------------
Number of tracks:  28
Official DR value: DR9
Samplerate:        44100 Hz
Channels:          2
Bits per sample:   24
Bitrate:           1720 kbps
Codec:             FLAC
================================================================================
This marks the 13th studio album from the pop music legend. Robbie croons alongside such special guests as Rod Stewart, Bryan Adams, Jamie Cullum and Tyson Fury on it.
2019 holiday release from the British singer/songwriter. The double album features themed discs: Christmas Past and Christmas Future - both including a brilliant mixture of original songs and special festive covers with some star guest appearances. Includes appearances from Jamie Cullum, Rod Stewart, Bryan Adams, and Tyson Fury. Deluxe edition includes four bonus tracks.
Правила, инструкции, FAQ!!!
Торрент  Добавлен [24 ноя 2019, 15:44] Скачать торрент Магнет ссылка
Скачать торрент
[ Размер 12.95 КБ / Просмотров 87 ]

Статус
Проверен 
 
Размер  1.07 ГБ
Приватный: Нет (DHT включён)
.torrent скачан  6
 


     Отправить личное сообщение
   
Страница 1 из 1
Показать сообщения за:  Поле сортировки  
Начать новую тему Ответить на тему


Сейчас этот форум просматривают: нет зарегистрированных пользователей и гости: 0


Вы не можете начинать темы
Вы не можете отвечать на сообщения
Вы не можете редактировать свои сообщения
Вы не можете удалять свои сообщения
Вы не можете добавлять вложения

Перейти:  
cron
cron