Начать новую тему Ответить на тему
Статистика раздачи
Размер: 644.57 МБ | Добавлен: 01 июл 2017, 08:18 | Скачали: 1
Сидеров: 3  [0 байт/сек]    Личеров: 1  [0 байт/сек]
Пред. тема | След. тема 

Автор
Сообщение

СообщениеДобавлено: 01 июл 2017, 08:18 

Ответить с цитатой 

Rob Thomas / Something To Be
Формат записи/Источник записи: [TR24][OF]
Наличие водяных знаков: Нет
Год издания/переиздания диска: 2005/2013
Жанр: Pop
Издатель(лейбл): Melisma - Atlantic Records
Продолжительность: 50:24
Наличие сканов в содержимом раздачи: Только обложка альбома
Треклист:
01. This Is How A Heart Breaks
02. Lonely No More
03. Ever the Same
04. I Am An Illusion
05. When The Heartache Ends
06. Something To Be
07. All That I Am
08. Problem Girl
09. Fallin' To Pieces
10. My My My
11. Streetcorner Symphony
12. Now Comes The Night
Контейнер: FLAC (*.flac)
Тип рипа: tracks
Разрядность: 24/48
Формат: PCM
Количество каналов: 2.0
Код:
foobar2000 1.3.13 / Замер динамического диапазона (DR) 1.1.1
Дата отчёта:  2017-01-22 19:53:48
--------------------------------------------------------------------------------
Анализ:   Rob Thomas / ...Something To Be
--------------------------------------------------------------------------------
DR         Пики         RMS           Продолжительность трека
--------------------------------------------------------------------------------
DR6       -0.10 дБ    -7.67 дБ      3:51 01-This Is How A Heart Breaks
DR6       -0.10 дБ    -8.16 дБ      3:47 02-Lonely No More
DR6       -0.10 дБ    -7.94 дБ      4:17 03-Ever The Same
DR6       -0.10 дБ    -7.45 дБ      4:53 04-I Am An Illusion
DR7       -0.10 дБ    -8.39 дБ      2:52 05-When The Heartache Ends
DR6       -0.10 дБ    -8.42 дБ      4:32 06-Something To Be
DR6       -0.20 дБ    -8.64 дБ      4:29 07-All That I Am
DR5       -0.10 дБ    -7.16 дБ      3:56 08-Problem Girl
DR7       -0.10 дБ    -8.76 дБ      4:12 09-Fallin' To Pieces
DR7       -0.10 дБ    -8.96 дБ      4:19 10-My My My
DR7       -0.10 дБ    -8.63 дБ      4:09 11-Streetcorner Symphony
DR12      -0.30 дБ   -15.87 дБ      4:56 12-Now Comes The Night
--------------------------------------------------------------------------------
Количество треков: 12
Реальные значения DR: DR7
Частота:   48000 Гц
Каналов:   2
Разрядность:   24
Битрейт:   1455 кбит/с
Кодек:   FLAC
================================================================================


Источник (релизер):
Правила, инструкции, FAQ!!!
Торрент  Добавлен [01 июл 2017, 08:18] Скачать торрент Магнет ссылка
Скачать торрент
[ Размер 13.81 КБ / Просмотров 56 ]

Статус
Проверен 
 
Размер  644.57 МБ
Приватный: Нет (DHT включён)
.torrent скачан  1
 


     Отправить личное сообщение
   
Страница 1 из 1
Показать сообщения за:  Поле сортировки  
Начать новую тему Ответить на тему


Сейчас этот форум просматривают: нет зарегистрированных пользователей и гости: 0


Вы не можете начинать темы
Вы не можете отвечать на сообщения
Вы не можете редактировать свои сообщения
Вы не можете удалять свои сообщения
Вы не можете добавлять вложения

Перейти:  
cron