Начать новую тему Ответить на тему
Статистика раздачи
Размер: 505.7 МБ | Добавлен: 01 апр 2019, 19:27 | Скачали: 14
Сидеров: 24  [0 байт/сек]    Личеров: 7  [0 байт/сек]
Пред. тема | След. тема 

Автор
Сообщение

СообщениеДобавлено: 01 апр 2019, 19:27 

Ответить с цитатой 

Rick Astley / Beautiful Life
Формат записи/Источник записи: [TR24][OF]
Наличие водяных знаков: Нет
Год издания/переиздания диска: 2018
Жанр: Pop
Издатель (лейбл): BMG Rights Management GmbH
Продолжительность: 42:35
Наличие сканов в содержимом раздачи: Front
Источник (релизер): 7digital
Контейнер: FLAC (*.flac)
Тип рипа: tracks
Разрядность: 24/44,1
Формат: PCM
Количество каналов: 2.0
Треклист:
01. Beautiful Life
02. Chance to Dance
03. She Makes Me
04. Shivers
05. Last Night on Earth
06. Every Corner
07. I Need the Light
08. Better Together
09. Empty Heart
10. Rise Up
11. Try
12. The Good Old Days
Код:
foobar2000 1.3.7 / Dynamic Range Meter 1.1.1
log date: 2018-07-13 02:37:22
--------------------------------------------------------------------------------
Analyzed: Rick Astley / Beautiful Life
--------------------------------------------------------------------------------
DR         Peak         RMS     Duration Track
--------------------------------------------------------------------------------
DR4       -0.01 dB    -5.44 dB      3:44 01-Beautiful Life
DR6       -0.02 dB    -6.89 dB      3:12 02-Chance to Dance
DR5       -0.01 dB    -6.78 dB      3:35 03-She Makes Me
DR5       -0.11 dB    -7.40 dB      3:39 04-Shivers
DR6       -0.01 dB    -8.20 dB      3:38 05-Last Night on Earth
DR6       -0.02 dB    -8.12 dB      3:25 06-Every Corner
DR6       -0.01 dB    -8.41 dB      3:05 07-I Need the Light
DR7       -0.01 dB    -8.31 dB      3:13 08-Better Together
DR6       -0.10 dB    -7.03 dB      4:15 09-Empty Heart
DR7       -0.01 dB    -8.74 dB      3:15 10-Rise Up
DR5       -0.11 dB    -7.41 dB      3:55 11-Try
DR6       -0.11 dB    -7.58 dB      3:48 12-The Good Old Days
--------------------------------------------------------------------------------
Number of tracks:  12
Official DR value: DR6
Samplerate:        44100 Hz
Channels:          2
Bits per sample:   24
Bitrate:           1620 kbps
Codec:             FLAC
================================================================================
Rick Astley’s new album, ‘Beautiful Life’, is released July 20th on BMG with an iconic cover shot by Rankin. Each of the twelve tracks are written, produced and played by Rick. Highlights are many and include the Chic flavored title track, the evocative ‘Rise Up’, the insanely catchy ‘Try’ and the warm childhood memories of ‘The Good Old Days’. There’s no denying, Rick Astley is back and here to stay.

Раздаю до первых 5-ти скачавших, на раздачи не возвращаюсь...

Правила, инструкции, FAQ!!!
Торрент  Добавлен [01 апр 2019, 19:27] Скачать торрент Магнет ссылка
Скачать торрент
[ Размер 20.9 КБ / Просмотров 50 ]

Статус
Проверен 
 
Размер  505.7 МБ
Приватный: Нет (DHT включён)
.torrent скачан  14
 


     Отправить личное сообщение
   
Страница 1 из 1
Показать сообщения за:  Поле сортировки  
Начать новую тему Ответить на тему


Сейчас этот форум просматривают: нет зарегистрированных пользователей и гости: 0


Вы не можете начинать темы
Вы не можете отвечать на сообщения
Вы не можете редактировать свои сообщения
Вы не можете удалять свои сообщения
Вы не можете добавлять вложения

Перейти:  
cron