Начать новую тему Ответить на тему
Статистика раздачи
Размер: 405.02 МБ | Добавлен: 05 дек 2013, 10:37 | Скачали: 1
Сидеров: 1  [0 байт/сек]    Личеров: 1  [0 байт/сек]
Пред. тема | След. тема 

Автор
Сообщение

СообщениеДобавлено: 05 дек 2013, 10:37 

Ответить с цитатой 

Richard Marx - Repeat Offender (1989)

Год: 1989
Страна-производитель диска: Europe
Издатель (лейбл): EMI USA
Номер по каталогу: CDP-7-90380-2
Жанр: Rock, Melodic rock
Продолжительность: 00:49:18
Кодек: FLAC (*.flac)
Битрейт: Lossless
Тип рипа: image+.cue
Спасибо: brookman
Второй альбом певца Repeat Offender трижды стал платиновым, по продажам обошел дебютник в два раза и покорил в сентябре 1989-го верхушку Billboard сместив с первой позиции Prince...
Треклист:
01. Nothin' You Can Do About It (4:44)
02. Satisfied (4:14)
03. Angelia (5:17)
04. Too Late To Say Goodbye (4:52)
05. Right Here Waiting For You (4:24)
06. Heart On The LIne (4:43)
07. Real World (4:14)
08. If You Don't Want My Love (4:07)
09. That Was Lulu (3:44)
10. Wait For The Sunrise (4:15)
11. Children Of The Night (4:44)
Код:
Код:
Exact Audio Copy V1.0 beta 3 from 29. August 2011

EAC extraction logfile from 17. August 2013, 20:14

Richard Marx / Repeat Offender

Used drive  : SAMSUNG DVD-ROM SD-616E   Adapter: 3  ID: 0

Read mode               : Secure
Utilize accurate stream : Yes
Defeat audio cache      : Yes
Make use of C2 pointers : No

Read offset correction                      : 12
Overread into Lead-In and Lead-Out          : No
Fill up missing offset samples with silence : Yes
Delete leading and trailing silent blocks   : No
Null samples used in CRC calculations       : Yes
Used interface                              : Native Win32 interface for Win NT & 2000

Used output format              : User Defined Encoder
Selected bitrate                : 768 kBit/s
Quality                         : High
Add ID3 tag                     : No
Command line compressor         : C:\Program Files\Exact Audio Copy\FLAC\FLAC.EXE
Additional command line options : -6 -V -T "ARTIST=%artist%" -T "TITLE=%title%" -T "ALBUM=%albumtitle%" -T "DATE=%year%" -T "TRACKNUMBER=%tracknr%" -T "GENRE=%genre%" -T "COMMENT=%comment%" -T "BAND=%albuminterpret%" -T "ALBUMARTIST=%albuminterpret%" -T "COMPOSER=%composer%" %haslyrics%--tag-from-file=LYRICS="%lyricsfile%"%haslyrics% -T "DISCNUMBER=%cdnumber%" -T "TOTALDISCS=%totalcds%" -T "TOTALTRACKS=%numtracks%" %hascover%--picture="%coverfile%"%hascover% %source% -o %dest%

TOC of the extracted CD

     Track |   Start  |  Length  | Start sector | End sector
    ---------------------------------------------------------
        1  |  0:00.32 |  4:44.10 |        32    |    21341
        2  |  4:44.42 |  4:14.35 |     21342    |    40426
        3  |  8:59.02 |  5:17.70 |     40427    |    64271
        4  | 14:16.72 |  4:52.40 |     64272    |    86211
        5  | 19:09.37 |  4:24.30 |     86212    |   106041
        6  | 23:33.67 |  4:43.25 |    106042    |   127291
        7  | 28:17.17 |  4:14.38 |    127292    |   146379
        8  | 32:31.55 |  4:07.35 |    146380    |   164939
        9  | 36:39.15 |  3:44.57 |    164940    |   181796
       10  | 40:23.72 |  4:15.43 |    181797    |   200964
       11  | 44:39.40 |  4:45.00 |    200965    |   222339

Range status and errors

Selected range

     Filename C:\Documents and Settings\Borya\Desktop\rima89\Richard Marx - Repeat Offender.wav

     Peak level 95.1 %
     Extraction speed 3.0 X
     Range quality 100.0 %
     Test CRC 7FAA6BA7
     Copy CRC 7FAA6BA7
     Copy OK

No errors occurred

AccurateRip summary

Track  1  accurately ripped (confidence 3)  [248265C8]  (AR v1)
Track  2  accurately ripped (confidence 4)  [401A163A]  (AR v1)
Track  3  accurately ripped (confidence 4)  [55CC8AF6]  (AR v1)
Track  4  accurately ripped (confidence 3)  [34C1FC01]  (AR v1)
Track  5  accurately ripped (confidence 5)  [45BB7282]  (AR v1)
Track  6  accurately ripped (confidence 4)  [148FB7B8]  (AR v1)
Track  7  accurately ripped (confidence 3)  [3A1E33E4]  (AR v1)
Track  8  accurately ripped (confidence 3)  [A707B900]  (AR v1)
Track  9  accurately ripped (confidence 4)  [BBB1E089]  (AR v1)
Track 10  accurately ripped (confidence 4)  [DBDA9869]  (AR v1)
Track 11  accurately ripped (confidence 3)  [13BCC973]  (AR v1)

All tracks accurately ripped

End of status report

==== Log checksum C4B3F5EF55FD84C9DB48ED04298766D493F6DBD773A4E3773D8563F31F2F3E01 ====
Код:
Код:
-----------------------

DON'T MODIFY THIS FILE

-----------------------

PERFORMER: auCDtect Task Manager, ver. 1.6.0 RC1 build 1.6.0.1
Copyright (c) 2008-2010 y-soft. All rights reserved
http:/y-soft.org

ANALYZER: auCDtect: CD records authenticity detector, version 0.8.2
Copyright (c) 2004 Oleg Berngardt. All rights reserved.
Copyright (c) 2004 Alexander Djourik. All rights reserved.

FILE: Richard Marx - Repeat Offender.flac
  Size: 368223785 Hash: 4294CA5A410815A9949A9073CF36DE57 Accuracy: -m0
  Conclusion: CDDA 100%
  Signature: 6DF6FEA23CDD7C21E2DDD255EABCE5CD80E36EF5
Код:
Код:

REM GENRE "Hard Rock"
REM DATE 1989
REM DISCID 920B940B
REM COMMENT "ExactAudioCopy v1.0b3"
PERFORMER "Richard Marx"
TITLE "Repeat Offender"
FILE "Richard Marx - Repeat Offender.flac" WAVE
  TRACK 01 AUDIO
    TITLE "Nothin' You Can Do About It"
    PERFORMER "Richard Marx"
    INDEX 00 00:00:00
    INDEX 01 00:00:32
  TRACK 02 AUDIO
    TITLE "Satisfied"
    PERFORMER "Richard Marx"
    INDEX 00 04:42:65
    INDEX 01 04:44:42
  TRACK 03 AUDIO
    TITLE "Angelia"
    PERFORMER "Richard Marx"
    INDEX 00 08:58:52
    INDEX 01 08:59:02
  TRACK 04 AUDIO
    TITLE "Too Late To Say Goodbye"
    PERFORMER "Richard Marx"
    INDEX 00 14:16:70
    INDEX 01 14:16:72
  TRACK 05 AUDIO
    TITLE "Right Here Waiting"
    PERFORMER "Richard Marx"
    INDEX 00 19:09:35
    INDEX 01 19:09:37
  TRACK 06 AUDIO
    TITLE "Heart On The Line"
    PERFORMER "Richard Marx"
    INDEX 00 23:32:50
    INDEX 01 23:33:67
  TRACK 07 AUDIO
    TITLE "Real World"
    PERFORMER "Richard Marx"
    INDEX 00 28:17:15
    INDEX 01 28:17:17
  TRACK 08 AUDIO
    TITLE "If You Don't Want My Love"
    PERFORMER "Richard Marx"
    INDEX 00 32:30:70
    INDEX 01 32:31:55
  TRACK 09 AUDIO
    TITLE "That Was Lulu"
    PERFORMER "Richard Marx"
    INDEX 00 36:38:39
    INDEX 01 36:39:15
  TRACK 10 AUDIO
    TITLE "Wait For The Sunrise"
    PERFORMER "Richard Marx"
    INDEX 00 40:23:47
    INDEX 01 40:23:72
  TRACK 11 AUDIO
    TITLE "Children Of The Night"
    PERFORMER "Richard Marx"
    INDEX 00 44:38:53
    INDEX 01 44:39:40



Правила, инструкции, FAQ!!!
Торрент  Добавлен [05 дек 2013, 10:37] Скачать торрент Магнет ссылка
Скачать торрент
[ Размер 17.15 КБ / Просмотров 42 ]

Статус  
 
Размер  405.02 МБ
Приватный: Нет (DHT включён)
.torrent скачан  1
 


     Отправить личное сообщение
   
Страница 1 из 1
Показать сообщения за:  Поле сортировки  
Начать новую тему Ответить на тему


Сейчас этот форум просматривают: нет зарегистрированных пользователей и гости: 0


Вы не можете начинать темы
Вы не можете отвечать на сообщения
Вы не можете редактировать свои сообщения
Вы не можете удалять свои сообщения
Вы не можете добавлять вложения

Перейти:  
cron