Начать новую тему Ответить на тему
Статистика раздачи
Размер: 313.27 МБ | Добавлен: 22 июн 2020, 15:52 | Скачали: 0
Сидеров: 0  [0 байт/сек]    Личеров: 0  [0 байт/сек]
Пред. тема | След. тема 

Автор
Сообщение

СообщениеДобавлено: 22 июн 2020, 15:52 

Ответить с цитатой 

Barbara Lewis / The Platinum Collection
Жанр: Rhythm & Blues, Soul
Носитель: CD
Страна-производитель диска (релиза): UK
Год издания: 2007
Издатель (лейбл): Rhino Records
Номер по каталогу: 8122-79994-9
Аудиокодек: FLAC (*.flac)
Тип рипа: tracks+.cue
Продолжительность: 00:51:10
Источник: israbox
Наличие сканов в содержимом раздачи: да
Треклист:
1 My Heart Went Do Dat Da 2:17
2 My Mama Told Me 2:16
3 Puppy Love 2:24
4 Hello Stranger 2:47
5 Think A Little Sugar 2:20
6 Straighten Up Your Heart 2:24
7 Snap Your Fingers 3:07
8 How Can I Say Goodbye 2:47
9 Spend A Little Time 2:58
10 Someday We're Gonna Love Again 2:07
11 Pushin' A Good Thing Too Far 2:47
12 Baby, I'm Yours 2:34
13 Make Me Your Baby 2:33
14 Don't Forget About Me 2:33
15 Make Me Belong To You 2:31
16 Baby What Do You Want Me To Do 2:39
17 I Remember The Feeling 2:35
18 I'll Make Him Love Me 2:19
19 Thankful For What I've Got 2:49
20 Sho-Nuff (It's Got To Be Your Love) 2:34
Код:
Exact Audio Copy V0.99 prebeta 5 from 4. May 2009
EAC extraction logfile from 25. December 2010, 15:01
Barbara Lewis / The Platinum Collection
Used drive  : Optiarc DVD RW AD-7203A   Adapter: 0  ID: 0
Read mode               : Secure
Utilize accurate stream : Yes
Defeat audio cache      : Yes
Make use of C2 pointers : No
Read offset correction                      : 48
Overread into Lead-In and Lead-Out          : No
Fill up missing offset samples with silence : Yes
Delete leading and trailing silent blocks   : No
Null samples used in CRC calculations       : Yes
Used interface                              : Installed external ASPI interface
Gap handling                                : Appended to previous track
Used output format              : User Defined Encoder
Selected bitrate                : 1024 kBit/s
Quality                         : High
Add ID3 tag                     : No
Command line compressor         : C:\Program Files\FLAC\flac.exe
Additional command line options : -V -8 -T "artist=%a" -T "title=%t" -T "album=%g" -T "date=%y" -T "tracknumber=%n" -T "genre=%m" %s
TOC of the extracted CD
     Track |   Start  |  Length  | Start sector | End sector
    ---------------------------------------------------------
        1  |  0:00.00 |  2:18.25 |         0    |    10374
        2  |  2:18.25 |  2:15.29 |     10375    |    20528
        3  |  4:33.54 |  2:23.55 |     20529    |    31308
        4  |  6:57.34 |  2:47.05 |     31309    |    43838
        5  |  9:44.39 |  2:19.70 |     43839    |    54333
        6  | 12:04.34 |  2:24.20 |     54334    |    65153
        7  | 14:28.54 |  3:06.71 |     65154    |    79174
        8  | 17:35.50 |  2:47.49 |     79175    |    91748
        9  | 20:23.24 |  2:57.63 |     91749    |   105086
       10  | 23:21.12 |  2:00.22 |    105087    |   114108
       11  | 25:21.34 |  2:47.00 |    114109    |   126633
       12  | 28:08.34 |  2:34.20 |    126634    |   138203
       13  | 30:42.54 |  2:33.18 |    138204    |   149696
       14  | 33:15.72 |  2:33.73 |    149697    |   161244
       15  | 35:49.70 |  2:31.73 |    161245    |   172642
       16  | 38:21.68 |  2:39.33 |    172643    |   184600
       17  | 41:01.26 |  2:34.56 |    184601    |   196206
       18  | 43:36.07 |  2:19.37 |    196207    |   206668
       19  | 45:55.44 |  2:49.49 |    206669    |   219392
       20  | 48:45.18 |  2:35.36 |    219393    |   231053
Track  1
     Filename C:\Users\BeLiAL\EAC RIPS waffles.fm\Barbara Lewis - 2007 - The Platinum Collection\01 - My Heart Went Do Dat Da.wav
     Pre-gap length  0:00:02.00
     Peak level 95.5 %
     Track quality 100.0 %
     Test CRC 564664F1
     Copy CRC 564664F1
     Accurately ripped (confidence 1)  [4544FFFA]
     Copy OK
Track  2
     Filename C:\Users\BeLiAL\EAC RIPS waffles.fm\Barbara Lewis - 2007 - The Platinum Collection\02 - My Mama Told Me.wav
     Pre-gap length  0:00:02.68
     Peak level 85.9 %
     Track quality 100.0 %
     Test CRC 6807152B
     Copy CRC 6807152B
     Accurately ripped (confidence 1)  [D3E4E7A6]
     Copy OK
Track  3
     Filename C:\Users\BeLiAL\EAC RIPS waffles.fm\Barbara Lewis - 2007 - The Platinum Collection\03 - Puppy Love.wav
     Pre-gap length  0:00:02.68
     Peak level 86.2 %
     Track quality 100.0 %
     Test CRC C890D3B9
     Copy CRC C890D3B9
     Accurately ripped (confidence 1)  [A2F9E17B]
     Copy OK
Track  4
     Filename C:\Users\BeLiAL\EAC RIPS waffles.fm\Barbara Lewis - 2007 - The Platinum Collection\04 - Hello Stranger.wav
     Pre-gap length  0:00:02.68
     Peak level 88.0 %
     Track quality 100.0 %
     Test CRC CCB6A309
     Copy CRC CCB6A309
     Accurately ripped (confidence 2)  [A66D8893]
     Copy OK
Track  5
     Filename C:\Users\BeLiAL\EAC RIPS waffles.fm\Barbara Lewis - 2007 - The Platinum Collection\05 - Think A Little Sugar.wav
     Pre-gap length  0:00:02.68
     Peak level 87.9 %
     Track quality 100.0 %
     Test CRC 7AD35F91
     Copy CRC 7AD35F91
     Accurately ripped (confidence 1)  [8467ACA4]
     Copy OK
Track  6
     Filename C:\Users\BeLiAL\EAC RIPS waffles.fm\Barbara Lewis - 2007 - The Platinum Collection\06 - Straighten Up Hour Heart.wav
     Pre-gap length  0:00:02.68
     Peak level 81.5 %
     Track quality 100.0 %
     Test CRC 12A83AA6
     Copy CRC 12A83AA6
     Accurately ripped (confidence 1)  [4491141E]
     Copy OK
Track  7
     Filename C:\Users\BeLiAL\EAC RIPS waffles.fm\Barbara Lewis - 2007 - The Platinum Collection\07 - Snap Your Fingers.wav
     Pre-gap length  0:00:02.68
     Peak level 83.4 %
     Track quality 99.9 %
     Test CRC F692F32B
     Copy CRC F692F32B
     Accurately ripped (confidence 1)  [C14548EE]
     Copy OK
Track  8
     Filename C:\Users\BeLiAL\EAC RIPS waffles.fm\Barbara Lewis - 2007 - The Platinum Collection\08 - How Can I Say Goodbye.wav
     Pre-gap length  0:00:02.68
     Peak level 85.3 %
     Track quality 100.0 %
     Test CRC 2C4FF5F4
     Copy CRC 2C4FF5F4
     Accurately ripped (confidence 1)  [14C3B9BE]
     Copy OK
Track  9
     Filename C:\Users\BeLiAL\EAC RIPS waffles.fm\Barbara Lewis - 2007 - The Platinum Collection\09 - Spend A Little Time.wav
     Pre-gap length  0:00:02.68
     Peak level 84.4 %
     Track quality 100.0 %
     Test CRC 42DB0192
     Copy CRC 42DB0192
     Accurately ripped (confidence 1)  [83085493]
     Copy OK
Track 10
     Filename C:\Users\BeLiAL\EAC RIPS waffles.fm\Barbara Lewis - 2007 - The Platinum Collection\10 - Someday We're Gonna Love Again.wav
     Pre-gap length  0:00:02.68
     Peak level 83.0 %
     Track quality 100.0 %
     Test CRC 7DBAB11B
     Copy CRC 7DBAB11B
     Accurately ripped (confidence 1)  [7C4229B9]
     Copy OK
Track 11
     Filename C:\Users\BeLiAL\EAC RIPS waffles.fm\Barbara Lewis - 2007 - The Platinum Collection\11 - Pushin' A Good Thing Too Far.wav
     Pre-gap length  0:00:02.68
     Peak level 80.6 %
     Track quality 100.0 %
     Test CRC 643EA30C
     Copy CRC 643EA30C
     Accurately ripped (confidence 1)  [ACC1728F]
     Copy OK
Track 12
     Filename C:\Users\BeLiAL\EAC RIPS waffles.fm\Barbara Lewis - 2007 - The Platinum Collection\12 - Baby, I'm Yours.wav
     Pre-gap length  0:00:02.68
     Peak level 78.9 %
     Track quality 100.0 %
     Test CRC 36AAA5CD
     Copy CRC 36AAA5CD
     Track not present in AccurateRip database
     Copy OK
Track 13
     Filename C:\Users\BeLiAL\EAC RIPS waffles.fm\Barbara Lewis - 2007 - The Platinum Collection\13 - Make Me Your Baby.wav
     Pre-gap length  0:00:02.68
     Peak level 83.6 %
     Track quality 100.0 %
     Test CRC FACBA4EB
     Copy CRC FACBA4EB
     Accurately ripped (confidence 1)  [CC81EDC0]
     Copy OK
Track 14
     Filename C:\Users\BeLiAL\EAC RIPS waffles.fm\Barbara Lewis - 2007 - The Platinum Collection\14 - Don't Forget About Me.wav
     Pre-gap length  0:00:02.68
     Peak level 87.9 %
     Track quality 100.0 %
     Test CRC 77E81F5B
     Copy CRC 77E81F5B
     Accurately ripped (confidence 1)  [CCDEA6FC]
     Copy OK
Track 15
     Filename C:\Users\BeLiAL\EAC RIPS waffles.fm\Barbara Lewis - 2007 - The Platinum Collection\15 - Make Me Belong To You.wav
     Pre-gap length  0:00:02.68
     Peak level 79.5 %
     Track quality 100.0 %
     Test CRC 58D0F325
     Copy CRC 58D0F325
     Accurately ripped (confidence 1)  [CF95FB41]
     Copy OK
Track 16
     Filename C:\Users\BeLiAL\EAC RIPS waffles.fm\Barbara Lewis - 2007 - The Platinum Collection\16 - Baby What Do You Want Me To Do.wav
     Pre-gap length  0:00:02.68
     Peak level 80.5 %
     Track quality 100.0 %
     Test CRC F424E223
     Copy CRC F424E223
     Accurately ripped (confidence 1)  [C5F7228A]
     Copy OK
Track 17
     Filename C:\Users\BeLiAL\EAC RIPS waffles.fm\Barbara Lewis - 2007 - The Platinum Collection\17 - I Remember The Feeling.wav
     Pre-gap length  0:00:02.68
     Peak level 85.7 %
     Track quality 99.9 %
     Test CRC C543664B
     Copy CRC C543664B
     Accurately ripped (confidence 1)  [EA4EB5C7]
     Copy OK
Track 18
     Filename C:\Users\BeLiAL\EAC RIPS waffles.fm\Barbara Lewis - 2007 - The Platinum Collection\18 - I'll Make Him Love Me.wav
     Pre-gap length  0:00:02.68
     Peak level 87.0 %
     Track quality 100.0 %
     Test CRC ADD36A89
     Copy CRC ADD36A89
     Accurately ripped (confidence 1)  [F3555E1B]
     Copy OK
Track 19
     Filename C:\Users\BeLiAL\EAC RIPS waffles.fm\Barbara Lewis - 2007 - The Platinum Collection\19 - Thankful For What I've Got.wav
     Pre-gap length  0:00:02.68
     Peak level 87.9 %
     Track quality 99.9 %
     Test CRC 5C4A722F
     Copy CRC 5C4A722F
     Accurately ripped (confidence 1)  [9F5EF836]
     Copy OK
Track 20
     Filename C:\Users\BeLiAL\EAC RIPS waffles.fm\Barbara Lewis - 2007 - The Platinum Collection\20 - Sho-Nuff(It's Got To Be Your Love).wav
     Pre-gap length  0:00:02.72
     Peak level 87.9 %
     Track quality 100.0 %
     Test CRC AA4221D2
     Copy CRC AA4221D2
     Accurately ripped (confidence 1)  [156AB2DA]
     Copy OK
19 track(s) accurately ripped
 1 track(s) not present in the AccurateRip database
Some tracks could not be verified as accurate
No errors occurred
End of status report
Код:
REM GENRE R&B
REM DATE 2007
REM DISCID 140C0814
REM COMMENT "ExactAudioCopy v0.99pb5"
FILE "01 - My Heart Went Do Dat Da.wav" WAVE
  TRACK 01 AUDIO
    FLAGS DCP
    INDEX 01 00:00:00
  TRACK 02 AUDIO
    FLAGS DCP
    INDEX 00 02:15:49
FILE "02 - My Mama Told Me.wav" WAVE
    INDEX 01 00:00:00
  TRACK 03 AUDIO
    FLAGS DCP
    INDEX 00 02:12:53
FILE "03 - Puppy Love.wav" WAVE
    INDEX 01 00:00:00
  TRACK 04 AUDIO
    FLAGS DCP
    INDEX 00 02:21:04
FILE "04 - Hello Stranger.wav" WAVE
    INDEX 01 00:00:00
  TRACK 05 AUDIO
    FLAGS DCP
    INDEX 00 02:44:29
FILE "05 - Think A Little Sugar.wav" WAVE
    INDEX 01 00:00:00
  TRACK 06 AUDIO
    FLAGS DCP
    INDEX 00 02:17:19
FILE "06 - Straighten Up Hour Heart.wav" WAVE
    INDEX 01 00:00:00
  TRACK 07 AUDIO
    FLAGS DCP
    INDEX 00 02:21:44
FILE "07 - Snap Your Fingers.wav" WAVE
    INDEX 01 00:00:00
  TRACK 08 AUDIO
    FLAGS DCP
    INDEX 00 03:04:20
FILE "08 - How Can I Say Goodbye.wav" WAVE
    INDEX 01 00:00:00
  TRACK 09 AUDIO
    FLAGS DCP
    INDEX 00 02:44:73
FILE "09 - Spend A Little Time.wav" WAVE
    INDEX 01 00:00:00
  TRACK 10 AUDIO
    FLAGS DCP
    INDEX 00 02:55:12
FILE "10 - Someday We're Gonna Love Again.wav" WAVE
    INDEX 01 00:00:00
  TRACK 11 AUDIO
    FLAGS DCP
    INDEX 00 01:57:46
FILE "11 - Pushin' A Good Thing Too Far.wav" WAVE
    INDEX 01 00:00:00
  TRACK 12 AUDIO
    FLAGS DCP
    INDEX 00 02:44:24
FILE "12 - Baby, I'm Yours.wav" WAVE
    INDEX 01 00:00:00
  TRACK 13 AUDIO
    FLAGS DCP
    INDEX 00 02:31:44
FILE "13 - Make Me Your Baby.wav" WAVE
    INDEX 01 00:00:00
  TRACK 14 AUDIO
    FLAGS DCP
    INDEX 00 02:30:42
FILE "14 - Don't Forget About Me.wav" WAVE
    INDEX 01 00:00:00
  TRACK 15 AUDIO
    FLAGS DCP
    INDEX 00 02:31:22
FILE "15 - Make Me Belong To You.wav" WAVE
    INDEX 01 00:00:00
  TRACK 16 AUDIO
    FLAGS DCP
    INDEX 00 02:29:22
FILE "16 - Baby What Do You Want Me To Do.wav" WAVE
    INDEX 01 00:00:00
  TRACK 17 AUDIO
    FLAGS DCP
    INDEX 00 02:36:57
FILE "17 - I Remember The Feeling.wav" WAVE
    INDEX 01 00:00:00
  TRACK 18 AUDIO
    FLAGS DCP
    INDEX 00 02:32:05
FILE "18 - I'll Make Him Love Me.wav" WAVE
    INDEX 01 00:00:00
  TRACK 19 AUDIO
    FLAGS DCP
    INDEX 00 02:16:61
FILE "19 - Thankful For What I've Got.wav" WAVE
    INDEX 01 00:00:00
  TRACK 20 AUDIO
    FLAGS DCP
    INDEX 00 02:46:70
FILE "20 - Sho-Nuff(It's Got To Be Your Love).wav" WAVE
    INDEX 01 00:00:00
Правила, инструкции, FAQ!!!
Торрент  Добавлен [22 июн 2020, 15:52] Скачать торрент Магнет ссылка
Скачать торрент
[ Размер 14.45 КБ / Просмотров 2 ]

Статус
Проверен 
 
Размер  313.27 МБ
Приватный: Нет (DHT включён)
.torrent скачан  0
 


     Отправить личное сообщение
   
Страница 1 из 1
Показать сообщения за:  Поле сортировки  
Начать новую тему Ответить на тему


Сейчас этот форум просматривают: нет зарегистрированных пользователей и гости: 0


Вы не можете начинать темы
Вы не можете отвечать на сообщения
Вы не можете редактировать свои сообщения
Вы не можете удалять свои сообщения
Вы не можете добавлять вложения

Перейти:  
cron