Начать новую тему Ответить на тему
Статистика раздачи
Размер: 1.26 ГБ | Добавлен: 01 апр 2019, 19:26 | Скачали: 2
Сидеров: 6  [0 байт/сек]    Личеров: 1  [0 байт/сек]
Пред. тема | След. тема 

Автор
Сообщение

СообщениеДобавлено: 01 апр 2019, 19:26 

Ответить с цитатой 

REOL / Jijitsujou
Формат записи/Источник записи: [TR24][OF]
Наличие водяных знаков: Нет
Год издания/переиздания диска: 2018
Жанр: JPop / Electro
Издатель (лейбл): Victor Entertainment
Продолжительность: 00:38:36
Наличие сканов в содержимом раздачи: Только обложка альбома
Треклист:
1. 幽居のワルツ (03:53)
2. サイサキ (03:37)
3. 激白 (03:26)
4. 十中八九 (03:45)
5. 煩悩遊戯 (03:12)
6. -MANDARA FACT- (01:52)
7. 真空オールドローズ (04:08)
8. ミラージュ (03:42)
9. SAIREN (03:51)
10. 秋映 (03:02)
11. 劣等上等 (03:55)
Контейнер: FLAC (*.flac)
Тип рипа: tracks
Разрядность: 24/96
Формат: PCM
Количество каналов: 2.0
Код:
General
Complete name                            : D:\001 japan flac\REOL Lossless\2018 REOL - Jijitsujou (24bit) flac\01 幽居のワルツ.flac
Format                                   : FLAC
Format/Info                              : Free Lossless Audio Codec
File size                                : 130 MiB
Duration                                 : 3 min 52 s
Overall bit rate mode                    : Variable
Overall bit rate                         : 4 690 kb/s
Album                                    : 事実上(Special edition)
Part                                     : 1
Track name                               : 幽居のワルツ
Track name/Position                      : 1
Performer                                :
Composer                                 : Reol / Reol
Producer                                 : JASRAC / CONNECTONE
Genre                                    : JPop
Recorded date                            : 2018
Copyright                                : (P)Victor Entertainment
Cover                                    : Yes
Cover type                               : Cover (front)
Cover MIME                               : image/jpeg
Comment                                  : JASRAC / CONNECTONE
GENRENUMBER                              :
45B1D925-1448-5784-B4DA-B89901050A13     : 10006001
BE242671-3D48-5AC8-B762-7D2DB4F584B8     : 12807518
FF8CA75F-2D68-52EB-85D6-1580486025A4     : 81522090
93A74BEA-CE97-5571-A56A-C5084DBA9873     : JPVI01812021
8E90F26B-372A-5C8C-BB05-1EC0F36EE60C     : VE5HD-30117
07F42305-3C75-529C-BA48-09435E88980D     :
50DBF5A2-F864-5C17-BE00-C36DFD3DF7B4     :
Album/Composer                           : Reol / Reol
Audio
Format                                   : FLAC
Format/Info                              : Free Lossless Audio Codec
Duration                                 : 3 min 52 s
Bit rate mode                            : Variable
Bit rate                                 : 4 616 kb/s
Channel(s)                               : 2 channels
Channel positions                        : Front: L R
Sampling rate                            : 96.0 kHz
Bit depth                                : 24 bits
Stream size                              : 128 MiB (98%)
Writing library                          : libFLAC 1.2.1 (UTC 2007-11-17)
General
Complete name                            : D:\001 japan flac\REOL Lossless\2018 REOL - Jijitsujou (24bit) flac\02 サイサキ.flac
Format                                   : FLAC
Format/Info                              : Free Lossless Audio Codec
File size                                : 122 MiB
Duration                                 : 3 min 37 s
Overall bit rate mode                    : Variable
Overall bit rate                         : 4 695 kb/s
Album                                    : 事実上(Special edition)
Part                                     : 1
Track name                               : サイサキ
Track name/Position                      : 2
Performer                                :
Composer                                 : Reol / Reol
Producer                                 : JASRAC / CONNECTONE
Genre                                    : JPop
Recorded date                            : 2018
Copyright                                : (P)Victor Entertainment
Cover                                    : Yes
Cover type                               : Cover (front)
Cover MIME                               : image/jpeg
Comment                                  : JASRAC / CONNECTONE
GENRENUMBER                              :
45B1D925-1448-5784-B4DA-B89901050A13     : 10006001
BE242671-3D48-5AC8-B762-7D2DB4F584B8     : 12807519
FF8CA75F-2D68-52EB-85D6-1580486025A4     : 81522090
93A74BEA-CE97-5571-A56A-C5084DBA9873     : JPVI01841430
8E90F26B-372A-5C8C-BB05-1EC0F36EE60C     : VE5HD-30118
07F42305-3C75-529C-BA48-09435E88980D     :
50DBF5A2-F864-5C17-BE00-C36DFD3DF7B4     :
Album/Composer                           : Reol / Reol
Audio
Format                                   : FLAC
Format/Info                              : Free Lossless Audio Codec
Duration                                 : 3 min 37 s
Bit rate mode                            : Variable
Bit rate                                 : 4 616 kb/s
Channel(s)                               : 2 channels
Channel positions                        : Front: L R
Sampling rate                            : 96.0 kHz
Bit depth                                : 24 bits
Stream size                              : 120 MiB (98%)
Writing library                          : libFLAC 1.2.1 (UTC 2007-11-17)
General
Complete name                            : D:\001 japan flac\REOL Lossless\2018 REOL - Jijitsujou (24bit) flac\03 激白.flac
Format                                   : FLAC
Format/Info                              : Free Lossless Audio Codec
File size                                : 116 MiB
Duration                                 : 3 min 26 s
Overall bit rate mode                    : Variable
Overall bit rate                         : 4 699 kb/s
Album                                    : 事実上(Special edition)
Part                                     : 1
Track name                               : 激白
Track name/Position                      : 3
Performer                                :
Composer                                 : Reol / Reol
Producer                                 : JASRAC / CONNECTONE
Genre                                    : JPop
Recorded date                            : 2018
Copyright                                : (P)Victor Entertainment
Cover                                    : Yes
Cover type                               : Cover (front)
Cover MIME                               : image/jpeg
Comment                                  : JASRAC / CONNECTONE
GENRENUMBER                              :
45B1D925-1448-5784-B4DA-B89901050A13     : 10006001
BE242671-3D48-5AC8-B762-7D2DB4F584B8     : 12807520
FF8CA75F-2D68-52EB-85D6-1580486025A4     : 81522090
93A74BEA-CE97-5571-A56A-C5084DBA9873     : JPVI01812041
8E90F26B-372A-5C8C-BB05-1EC0F36EE60C     : VE5HD-30119
07F42305-3C75-529C-BA48-09435E88980D     :
50DBF5A2-F864-5C17-BE00-C36DFD3DF7B4     :
Album/Composer                           : Reol / Reol
Audio
Format                                   : FLAC
Format/Info                              : Free Lossless Audio Codec
Duration                                 : 3 min 26 s
Bit rate mode                            : Variable
Bit rate                                 : 4 616 kb/s
Channel(s)                               : 2 channels
Channel positions                        : Front: L R
Sampling rate                            : 96.0 kHz
Bit depth                                : 24 bits
Stream size                              : 114 MiB (98%)
Writing library                          : libFLAC 1.2.1 (UTC 2007-11-17)
General
Complete name                            : D:\001 japan flac\REOL Lossless\2018 REOL - Jijitsujou (24bit) flac\04 十中八九.flac
Format                                   : FLAC
Format/Info                              : Free Lossless Audio Codec
File size                                : 125 MiB
Duration                                 : 3 min 44 s
Overall bit rate mode                    : Variable
Overall bit rate                         : 4 692 kb/s
Album                                    : 事実上(Special edition)
Part                                     : 1
Track name                               : 十中八九
Track name/Position                      : 4
Performer                                :
Composer                                 : Giga / Reol
Producer                                 : JASRAC / CONNECTONE
Genre                                    : JPop
Recorded date                            : 2018
Copyright                                : (P)Victor Entertainment
Cover                                    : Yes
Cover type                               : Cover (front)
Cover MIME                               : image/jpeg
Comment                                  : JASRAC / CONNECTONE
GENRENUMBER                              :
45B1D925-1448-5784-B4DA-B89901050A13     : 10006001
BE242671-3D48-5AC8-B762-7D2DB4F584B8     : 12807521
FF8CA75F-2D68-52EB-85D6-1580486025A4     : 81522090
93A74BEA-CE97-5571-A56A-C5084DBA9873     : JPVI01812031
8E90F26B-372A-5C8C-BB05-1EC0F36EE60C     : VE5HD-30120
07F42305-3C75-529C-BA48-09435E88980D     :
50DBF5A2-F864-5C17-BE00-C36DFD3DF7B4     :
Album/Composer                           : Reol / Reol
Audio
Format                                   : FLAC
Format/Info                              : Free Lossless Audio Codec
Duration                                 : 3 min 44 s
Bit rate mode                            : Variable
Bit rate                                 : 4 616 kb/s
Channel(s)                               : 2 channels
Channel positions                        : Front: L R
Sampling rate                            : 96.0 kHz
Bit depth                                : 24 bits
Stream size                              : 123 MiB (98%)
Writing library                          : libFLAC 1.2.1 (UTC 2007-11-17)
General
Complete name                            : D:\001 japan flac\REOL Lossless\2018 REOL - Jijitsujou (24bit) flac\05 煩悩遊戯.flac
Format                                   : FLAC
Format/Info                              : Free Lossless Audio Codec
File size                                : 107 MiB
Duration                                 : 3 min 11 s
Overall bit rate mode                    : Variable
Overall bit rate                         : 4 706 kb/s
Album                                    : 事実上(Special edition)
Part                                     : 1
Track name                               : 煩悩遊戯
Track name/Position                      : 5
Performer                                :
Composer                                 : Reol / Reol
Producer                                 : JASRAC / CONNECTONE
Genre                                    : JPop
Recorded date                            : 2018
Copyright                                : (P)Victor Entertainment
Cover                                    : Yes
Cover type                               : Cover (front)
Cover MIME                               : image/jpeg
Comment                                  : JASRAC / CONNECTONE
GENRENUMBER                              :
45B1D925-1448-5784-B4DA-B89901050A13     : 10006001
BE242671-3D48-5AC8-B762-7D2DB4F584B8     : 12807522
FF8CA75F-2D68-52EB-85D6-1580486025A4     : 81522090
93A74BEA-CE97-5571-A56A-C5084DBA9873     : JPVI01812051
8E90F26B-372A-5C8C-BB05-1EC0F36EE60C     : VE5HD-30121
07F42305-3C75-529C-BA48-09435E88980D     :
50DBF5A2-F864-5C17-BE00-C36DFD3DF7B4     :
Album/Composer                           : Reol / Reol
Audio
Format                                   : FLAC
Format/Info                              : Free Lossless Audio Codec
Duration                                 : 3 min 11 s
Bit rate mode                            : Variable
Bit rate                                 : 4 616 kb/s
Channel(s)                               : 2 channels
Channel positions                        : Front: L R
Sampling rate                            : 96.0 kHz
Bit depth                                : 24 bits
Stream size                              : 105 MiB (98%)
Writing library                          : libFLAC 1.2.1 (UTC 2007-11-17)
General
Complete name                            : D:\001 japan flac\REOL Lossless\2018 REOL - Jijitsujou (24bit) flac\06 -MANDARA FACT-.flac
Format                                   : FLAC
Format/Info                              : Free Lossless Audio Codec
File size                                : 63.0 MiB
Duration                                 : 1 min 50 s
Overall bit rate mode                    : Variable
Overall bit rate                         : 4 770 kb/s
Album                                    : 事実上(Special edition)
Part                                     : 1
Track name                               : -MANDARA FACT-
Track name/Position                      : 6
Performer                                :
Composer                                 : Giga / Reol
Producer                                 : JASRAC / CONNECTONE
Genre                                    : JPop
Recorded date                            : 2018
Copyright                                : (P)Victor Entertainment
Cover                                    : Yes
Cover type                               : Cover (front)
Cover MIME                               : image/jpeg
Comment                                  : JASRAC / CONNECTONE
GENRENUMBER                              :
45B1D925-1448-5784-B4DA-B89901050A13     : 10006001
BE242671-3D48-5AC8-B762-7D2DB4F584B8     : 12807523
FF8CA75F-2D68-52EB-85D6-1580486025A4     : 81522090
93A74BEA-CE97-5571-A56A-C5084DBA9873     : JPVI01812061
8E90F26B-372A-5C8C-BB05-1EC0F36EE60C     : VE5HD-30122
07F42305-3C75-529C-BA48-09435E88980D     :
50DBF5A2-F864-5C17-BE00-C36DFD3DF7B4     :
Album/Composer                           : Reol / Reol
Audio
Format                                   : FLAC
Format/Info                              : Free Lossless Audio Codec
Duration                                 : 1 min 50 s
Bit rate mode                            : Variable
Bit rate                                 : 4 616 kb/s
Channel(s)                               : 2 channels
Channel positions                        : Front: L R
Sampling rate                            : 96.0 kHz
Bit depth                                : 24 bits
Stream size                              : 61.0 MiB (97%)
Writing library                          : libFLAC 1.2.1 (UTC 2007-11-17)
General
Complete name                            : D:\001 japan flac\REOL Lossless\2018 REOL - Jijitsujou (24bit) flac\07 真空オールドローズ.flac
Format                                   : FLAC
Format/Info                              : Free Lossless Audio Codec
File size                                : 138 MiB
Duration                                 : 4 min 7 s
Overall bit rate mode                    : Variable
Overall bit rate                         : 4 685 kb/s
Album                                    : 事実上(Special edition)
Part                                     : 1
Track name                               : 真空オールドローズ
Track name/Position                      : 7
Performer                                :
Composer                                 : Reol / Reol
Producer                                 : JASRAC / CONNECTONE
Genre                                    : JPop
Recorded date                            : 2018
Copyright                                : (P)Victor Entertainment
Cover                                    : Yes
Cover type                               : Cover (front)
Cover MIME                               : image/jpeg
Comment                                  : JASRAC / CONNECTONE
GENRENUMBER                              :
45B1D925-1448-5784-B4DA-B89901050A13     : 10006001
BE242671-3D48-5AC8-B762-7D2DB4F584B8     : 12807524
FF8CA75F-2D68-52EB-85D6-1580486025A4     : 81522090
93A74BEA-CE97-5571-A56A-C5084DBA9873     : JPVI01812071
8E90F26B-372A-5C8C-BB05-1EC0F36EE60C     : VE5HD-30123
07F42305-3C75-529C-BA48-09435E88980D     :
50DBF5A2-F864-5C17-BE00-C36DFD3DF7B4     :
Album/Composer                           : Reol / Reol
Audio
Format                                   : FLAC
Format/Info                              : Free Lossless Audio Codec
Duration                                 : 4 min 7 s
Bit rate mode                            : Variable
Bit rate                                 : 4 616 kb/s
Channel(s)                               : 2 channels
Channel positions                        : Front: L R
Sampling rate                            : 96.0 kHz
Bit depth                                : 24 bits
Stream size                              : 136 MiB (99%)
Writing library                          : libFLAC 1.2.1 (UTC 2007-11-17)
General
Complete name                            : D:\001 japan flac\REOL Lossless\2018 REOL - Jijitsujou (24bit) flac\08 ミラージュ.flac
Format                                   : FLAC
Format/Info                              : Free Lossless Audio Codec
File size                                : 123 MiB
Duration                                 : 3 min 40 s
Overall bit rate mode                    : Variable
Overall bit rate                         : 4 694 kb/s
Album                                    : 事実上(Special edition)
Part                                     : 1
Track name                               : ミラージュ
Track name/Position                      : 8
Performer                                :
Composer                                 : Giga / Reol
Producer                                 : JASRAC / CONNECTONE
Genre                                    : JPop
Recorded date                            : 2018
Copyright                                : (P)Victor Entertainment
Cover                                    : Yes
Cover type                               : Cover (front)
Cover MIME                               : image/jpeg
Comment                                  : JASRAC / CONNECTONE
GENRENUMBER                              :
45B1D925-1448-5784-B4DA-B89901050A13     : 10006001
BE242671-3D48-5AC8-B762-7D2DB4F584B8     : 12807525
FF8CA75F-2D68-52EB-85D6-1580486025A4     : 81522090
93A74BEA-CE97-5571-A56A-C5084DBA9873     : JPVI01812081
8E90F26B-372A-5C8C-BB05-1EC0F36EE60C     : VE5HD-30124
07F42305-3C75-529C-BA48-09435E88980D     :
50DBF5A2-F864-5C17-BE00-C36DFD3DF7B4     :
Album/Composer                           : Reol / Reol
Audio
Format                                   : FLAC
Format/Info                              : Free Lossless Audio Codec
Duration                                 : 3 min 40 s
Bit rate mode                            : Variable
Bit rate                                 : 4 616 kb/s
Channel(s)                               : 2 channels
Channel positions                        : Front: L R
Sampling rate                            : 96.0 kHz
Bit depth                                : 24 bits
Stream size                              : 121 MiB (98%)
Writing library                          : libFLAC 1.2.1 (UTC 2007-11-17)
General
Complete name                            : D:\001 japan flac\REOL Lossless\2018 REOL - Jijitsujou (24bit) flac\09 SAIREN.flac
Format                                   : FLAC
Format/Info                              : Free Lossless Audio Codec
File size                                : 128 MiB
Duration                                 : 3 min 49 s
Overall bit rate mode                    : Variable
Overall bit rate                         : 4 691 kb/s
Album                                    : 事実上(Special edition)
Part                                     : 1
Track name                               : SAIREN
Track name/Position                      : 9
Performer                                :
Composer                                 : Reol / Reol
Producer                                 : JASRAC / CONNECTONE
Genre                                    : JPop
Recorded date                            : 2018
Copyright                                : (P)Victor Entertainment
Cover                                    : Yes
Cover type                               : Cover (front)
Cover MIME                               : image/jpeg
Comment                                  : JASRAC / CONNECTONE
GENRENUMBER                              :
45B1D925-1448-5784-B4DA-B89901050A13     : 10006001
BE242671-3D48-5AC8-B762-7D2DB4F584B8     : 12807526
FF8CA75F-2D68-52EB-85D6-1580486025A4     : 81522090
93A74BEA-CE97-5571-A56A-C5084DBA9873     : JPVI01871760
8E90F26B-372A-5C8C-BB05-1EC0F36EE60C     : VE5HD-30125
07F42305-3C75-529C-BA48-09435E88980D     :
50DBF5A2-F864-5C17-BE00-C36DFD3DF7B4     :
Album/Composer                           : Reol / Reol
Audio
Format                                   : FLAC
Format/Info                              : Free Lossless Audio Codec
Duration                                 : 3 min 49 s
Bit rate mode                            : Variable
Bit rate                                 : 4 616 kb/s
Channel(s)                               : 2 channels
Channel positions                        : Front: L R
Sampling rate                            : 96.0 kHz
Bit depth                                : 24 bits
Stream size                              : 126 MiB (98%)
Writing library                          : libFLAC 1.2.1 (UTC 2007-11-17)
General
Complete name                            : D:\001 japan flac\REOL Lossless\2018 REOL - Jijitsujou (24bit) flac\10 秋映.flac
Format                                   : FLAC
Format/Info                              : Free Lossless Audio Codec
File size                                : 101 MiB
Duration                                 : 2 min 59 s
Overall bit rate mode                    : Variable
Overall bit rate                         : 4 711 kb/s
Album                                    : 事実上(Special edition)
Part                                     : 1
Track name                               : 秋映
Track name/Position                      : 10
Performer                                :
Composer                                 : Reol / Reol
Producer                                 : JASRAC / CONNECTONE
Genre                                    : JPop
Recorded date                            : 2018
Copyright                                : (P)Victor Entertainment
Cover                                    : Yes
Cover type                               : Cover (front)
Cover MIME                               : image/jpeg
Comment                                  : JASRAC / CONNECTONE
GENRENUMBER                              :
45B1D925-1448-5784-B4DA-B89901050A13     : 10006001
BE242671-3D48-5AC8-B762-7D2DB4F584B8     : 12807527
FF8CA75F-2D68-52EB-85D6-1580486025A4     : 81522090
93A74BEA-CE97-5571-A56A-C5084DBA9873     : JPVI01812091
8E90F26B-372A-5C8C-BB05-1EC0F36EE60C     : VE5HD-30126
07F42305-3C75-529C-BA48-09435E88980D     :
50DBF5A2-F864-5C17-BE00-C36DFD3DF7B4     :
Album/Composer                           : Reol / Reol
Audio
Format                                   : FLAC
Format/Info                              : Free Lossless Audio Codec
Duration                                 : 2 min 59 s
Bit rate mode                            : Variable
Bit rate                                 : 4 616 kb/s
Channel(s)                               : 2 channels
Channel positions                        : Front: L R
Sampling rate                            : 96.0 kHz
Bit depth                                : 24 bits
Stream size                              : 98.9 MiB (98%)
Writing library                          : libFLAC 1.2.1 (UTC 2007-11-17)
General
Complete name                            : D:\001 japan flac\REOL Lossless\2018 REOL - Jijitsujou (24bit) flac\11 劣等上等.flac
Format                                   : FLAC
Format/Info                              : Free Lossless Audio Codec
File size                                : 132 MiB
Duration                                 : 3 min 55 s
Overall bit rate mode                    : Variable
Overall bit rate                         : 4 689 kb/s
Album                                    : 事実上(Special edition)
Part                                     : 1
Track name                               : 劣等上等
Track name/Position                      : 11
Performer                                :
Composer                                 : Giga / Reol
Producer                                 : JASRAC / CONNECTONE
Genre                                    : JPop
Recorded date                            : 2018
Copyright                                : (P)Victor Entertainment
Cover                                    : Yes
Cover type                               : Cover (front)
Cover MIME                               : image/jpeg
Comment                                  : JASRAC / CONNECTONE
GENRENUMBER                              :
45B1D925-1448-5784-B4DA-B89901050A13     : 10006001
BE242671-3D48-5AC8-B762-7D2DB4F584B8     : 12807528
FF8CA75F-2D68-52EB-85D6-1580486025A4     : 81522090
93A74BEA-CE97-5571-A56A-C5084DBA9873     : JPVI01813191
8E90F26B-372A-5C8C-BB05-1EC0F36EE60C     : VEAHD-11972-011
07F42305-3C75-529C-BA48-09435E88980D     :
50DBF5A2-F864-5C17-BE00-C36DFD3DF7B4     :
Album/Composer                           : Reol / Reol
Audio
Format                                   : FLAC
Format/Info                              : Free Lossless Audio Codec
Duration                                 : 3 min 55 s
Bit rate mode                            : Variable
Bit rate                                 : 4 616 kb/s
Channel(s)                               : 2 channels
Channel positions                        : Front: L R
Sampling rate                            : 96.0 kHz
Bit depth                                : 24 bits
Stream size                              : 130 MiB (98%)
Writing library                          : libFLAC 1.2.1 (UTC 2007-11-17)


Источник (релизер): Jpopsuki
Правила, инструкции, FAQ!!!
Торрент  Добавлен [01 апр 2019, 19:26] Скачать торрент Магнет ссылка
Скачать торрент
[ Размер 13.7 КБ / Просмотров 20 ]

Статус
Проверен 
 
Размер  1.26 ГБ
Приватный: Нет (DHT включён)
.torrent скачан  2
 


     Отправить личное сообщение
   
Страница 1 из 1
Показать сообщения за:  Поле сортировки  
Начать новую тему Ответить на тему


Сейчас этот форум просматривают: нет зарегистрированных пользователей и гости: 0


Вы не можете начинать темы
Вы не можете отвечать на сообщения
Вы не можете редактировать свои сообщения
Вы не можете удалять свои сообщения
Вы не можете добавлять вложения

Перейти:  
cron
cron