Начать новую тему Ответить на тему
Статистика раздачи
Размер: 253.83 МБ | Добавлен: 16 мар 2014, 00:52 | Скачали: 1
Сидеров: 0  [0 байт/сек]    Личеров: 2  [0 байт/сек]
Пред. тема | След. тема 

Автор
Сообщение

СообщениеДобавлено: 16 мар 2014, 00:52 

Ответить с цитатой 

Redlight King - Something For The Pain (2011)

Год: 2011
Жанр: Alternative Rock
Лейбл: Hollywood Records
Каталог #: B004WIKQF0
Продолжительность: 00:39:51
Кодек: FLAC
Тип рипа: tracks + .cue
Битрейт: Lossless
Треклист:
01. Something For The Pain (3:30)
02. Bullet In My Hand (3:06)
03. Old Man (3:01)
04. City Life (3:28)
05. Comeback (3:41)
06. Drivin To Kalifornia (3:02)
07. Built To Last (3:39)
08. Underground (3:22)
09. Little Darlin (3:49)
10. Past The Gates (3:14)
11. When The Dust Settles Down (2:59)
Код:
Код:
Exact Audio Copy V0.99 prebeta 5 from 4. May 2009

EAC extraction logfile from 30. June 2011, 13:35

Redlight King / Something For The Pain

Used drive  : TSSTcorpDVD+-RW TS-L632H   Adapter: 0  ID: 0

Read mode               : Secure
Utilize accurate stream : Yes
Defeat audio cache      : Yes
Make use of C2 pointers : No

Read offset correction                      : 6
Overread into Lead-In and Lead-Out          : No
Fill up missing offset samples with silence : Yes
Delete leading and trailing silent blocks   : No
Null samples used in CRC calculations       : Yes
Used interface                              : Native Win32 interface for Win NT & 2000
Gap handling                                : Appended to previous track

Used output format              : User Defined Encoder
Selected bitrate                : 320 kBit/s
Quality                         : High
Add ID3 tag                     : No
Command line compressor         : C:\Program Files\Exact Audio Copy\FLAC\flac.exe
Additional command line options : --best --picture="E:\My Music\FLAC\folder.jpg" -P 4096 -V -T "artist=%a" -T "title=%t" -T "album=%g" -T "tracknumber=%n" %s

TOC of the extracted CD

     Track |   Start  |  Length  | Start sector | End sector
    ---------------------------------------------------------
        1  |  0:00.00 |  3:29.45 |         0    |    15719
        2  |  3:29.45 |  3:05.59 |     15720    |    29653
        3  |  6:35.29 |  3:01.29 |     29654    |    43257
        4  |  9:36.58 |  3:28.18 |     43258    |    58875
        5  | 13:05.01 |  3:40.63 |     58876    |    75438
        6  | 16:45.64 |  3:02.28 |     75439    |    89116
        7  | 19:48.17 |  3:39.13 |     89117    |   105554
        8  | 23:27.30 |  3:21.61 |    105555    |   120690
        9  | 26:49.16 |  3:48.45 |    120691    |   137835
       10  | 30:37.61 |  3:13.69 |    137836    |   152379
       11  | 33:51.55 |  2:59.31 |    152380    |   165835

Track  1

     Filename E:\My Music\FLAC\Redlight King\Something For The Pain\01 - Something For The Pain.wav

     Pre-gap length  0:00:02.00

     Peak level 97.7 %
     Track quality 100.0 %
     Test CRC AFF70518
     Copy CRC AFF70518
     Track not present in AccurateRip database
     Copy OK

Track  2

     Filename E:\My Music\FLAC\Redlight King\Something For The Pain\02 - Bullet In My Hand.wav

     Peak level 97.7 %
     Track quality 100.0 %
     Test CRC 04028351
     Copy CRC 04028351
     Track not present in AccurateRip database
     Copy OK

Track  3

     Filename E:\My Music\FLAC\Redlight King\Something For The Pain\03 - Old Man.wav

     Peak level 97.7 %
     Track quality 100.0 %
     Test CRC 0C7975BE
     Copy CRC 0C7975BE
     Track not present in AccurateRip database
     Copy OK

Track  4

     Filename E:\My Music\FLAC\Redlight King\Something For The Pain\04 - City Life.wav

     Peak level 97.7 %
     Track quality 100.0 %
     Test CRC B8EA04AC
     Copy CRC B8EA04AC
     Track not present in AccurateRip database
     Copy OK

Track  5

     Filename E:\My Music\FLAC\Redlight King\Something For The Pain\05 - Comeback.wav

     Peak level 97.7 %
     Track quality 99.9 %
     Test CRC 889A7077
     Copy CRC 889A7077
     Track not present in AccurateRip database
     Copy OK

Track  6

     Filename E:\My Music\FLAC\Redlight King\Something For The Pain\06 - Drivin To Kalifornia.wav

     Peak level 97.7 %
     Track quality 100.0 %
     Test CRC DA140889
     Copy CRC DA140889
     Track not present in AccurateRip database
     Copy OK

Track  7

     Filename E:\My Music\FLAC\Redlight King\Something For The Pain\07 - Built To Last.wav

     Peak level 97.7 %
     Track quality 99.9 %
     Test CRC C303D0EE
     Copy CRC C303D0EE
     Track not present in AccurateRip database
     Copy OK

Track  8

     Filename E:\My Music\FLAC\Redlight King\Something For The Pain\08 - Underground.wav

     Peak level 97.7 %
     Track quality 100.0 %
     Test CRC 32144BD6
     Copy CRC 32144BD6
     Track not present in AccurateRip database
     Copy OK

Track  9

     Filename E:\My Music\FLAC\Redlight King\Something For The Pain\09 - Little Darlin.wav

     Peak level 97.7 %
     Track quality 100.0 %
     Test CRC 4848F417
     Copy CRC 4848F417
     Track not present in AccurateRip database
     Copy OK

Track 10

     Filename E:\My Music\FLAC\Redlight King\Something For The Pain\10 - Past The Gates.wav

     Peak level 97.7 %
     Track quality 99.9 %
     Test CRC 414777EC
     Copy CRC 414777EC
     Track not present in AccurateRip database
     Copy OK

Track 11

     Filename E:\My Music\FLAC\Redlight King\Something For The Pain\11 - When The Dust Settles Down.wav

     Peak level 97.7 %
     Track quality 100.0 %
     Test CRC 081C28BB
     Copy CRC 081C28BB
     Track not present in AccurateRip database
     Copy OK

None of the tracks are present in the AccurateRip database

No errors occurred

End of status report

Код:
Код:
-----------------------

DON'T MODIFY THIS FILE

-----------------------

PERFORMER: auCDtect Task Manager, ver. 1.6.0 RC1 build 1.6.0.1
Copyright (c) 2008-2010 y-soft. All rights reserved
http:/y-soft.org

ANALYZER: auCDtect: CD records authenticity detector, version 0.8.2
Copyright (c) 2004 Oleg Berngardt. All rights reserved.
Copyright (c) 2004 Alexander Djourik. All rights reserved.

FILE: 04 - City Life.flac
  Size: 24889647 Hash: 35183225DC6786D0F2C14C8B407978CD Accuracy: -m0
  Conclusion: CDDA 100%
  Signature: E3F1E652D6D3C74325DEF0211EB95E7D9AB3E6F3
FILE: 03 - Old Man.flac
  Size: 23423472 Hash: E9AFF966F94913F89CB1752FE0BC4287 Accuracy: -m0
  Conclusion: CDDA 99%
  Signature: C37896E7FBD0576C4F30155C0E57587B7E3A1960
FILE: 02 - Bullet In My Hand.flac
  Size: 22891814 Hash: 2E24244D79F4FC6EAE0EF08E52734864 Accuracy: -m0
  Conclusion: CDDA 100%
  Signature: C50B6D9F74C20E01484C69BCCC7A017BCE62EB83
FILE: 01 - Something For The Pain.flac
  Size: 25573357 Hash: 85B0C633CC81F90419FC287D902CB73D Accuracy: -m0
  Conclusion: CDDA 100%
  Signature: A46E76A8E2877E33FE540B1144B2821F3A9E4A2B
FILE: 11 - When The Dust Settles Down.flac
  Size: 16222585 Hash: 32BECB61EDF604E4DB17420FB8BC512A Accuracy: -m0
  Conclusion: CDDA 100%
  Signature: D3DCAC4FB55C6DA770F1AC7C747136F9621A6574
FILE: 10 - Past The Gates.flac
  Size: 22950442 Hash: 5082025F54E1E54D0402D25246D057E9 Accuracy: -m0
  Conclusion: CDDA 100%
  Signature: EAFDC127DDFD0FCAEF76E824F5294081E70390E3
FILE: 09 - Little Darlin.flac
  Size: 27268520 Hash: 1B981138AEDD22693F125AE2FFCB1B80 Accuracy: -m0
  Conclusion: CDDA 100%
  Signature: A897F2FA1E41E03A785867310D7ED3394FBE2918
FILE: 08 - Underground.flac
  Size: 25825198 Hash: D3AAEDFA4F9BF57C7C6AABD6E416FB8C Accuracy: -m0
  Conclusion: CDDA 99%
  Signature: 0F06AF417AD615395B4566667418B2E8A5C56C37
FILE: 07 - Built To Last.flac
  Size: 26784979 Hash: DA22E84EE1ACBDEEC6F7CA4FD3C7108E Accuracy: -m0
  Conclusion: CDDA 100%
  Signature: 76E73EA79B348C84BAC70403C923160061901D7F
FILE: 06 - Drivin To Kalifornia.flac
  Size: 22393547 Hash: 97F9AA5F489DF2C2B1D35F440113E3BD Accuracy: -m0
  Conclusion: CDDA 100%
  Signature: 9030AA73D9C86E664754CC91D9F383F17BCDAEA1
FILE: 05 - Comeback.flac
  Size: 27905941 Hash: 5481B77F7A4A10BB6E8F6585A0A985A0 Accuracy: -m0
  Conclusion: CDDA 100%
  Signature: 0D0A0CCA7895DA6A1D4E32ED7C349BA84C24CA4C

Код:
Код:
REM DISCID 8A08A30B
REM COMMENT "ExactAudioCopy v0.99pb5"
PERFORMER "Redlight King"
TITLE "Something For The Pain"
FILE "Redlight King\Something For The Pain\01 - Something For The Pain.wav" WAVE
  TRACK 01 AUDIO
    TITLE "Something For The Pain"
    PERFORMER "Redlight King"
    INDEX 01 00:00:00
FILE "Redlight King\Something For The Pain\02 - Bullet In My Hand.wav" WAVE
  TRACK 02 AUDIO
    TITLE "Bullet In My Hand"
    PERFORMER "Redlight King"
    INDEX 01 00:00:00
FILE "Redlight King\Something For The Pain\03 - Old Man.wav" WAVE
  TRACK 03 AUDIO
    TITLE "Old Man"
    PERFORMER "Redlight King"
    INDEX 01 00:00:00
FILE "Redlight King\Something For The Pain\04 - City Life.wav" WAVE
  TRACK 04 AUDIO
    TITLE "City Life"
    PERFORMER "Redlight King"
    INDEX 01 00:00:00
FILE "Redlight King\Something For The Pain\05 - Comeback.wav" WAVE
  TRACK 05 AUDIO
    TITLE "Comeback"
    PERFORMER "Redlight King"
    INDEX 01 00:00:00
FILE "Redlight King\Something For The Pain\06 - Drivin To Kalifornia.wav" WAVE
  TRACK 06 AUDIO
    TITLE "Drivin To Kalifornia"
    PERFORMER "Redlight King"
    INDEX 01 00:00:00
FILE "Redlight King\Something For The Pain\07 - Built To Last.wav" WAVE
  TRACK 07 AUDIO
    TITLE "Built To Last"
    PERFORMER "Redlight King"
    INDEX 01 00:00:00
FILE "Redlight King\Something For The Pain\08 - Underground.wav" WAVE
  TRACK 08 AUDIO
    TITLE "Underground"
    PERFORMER "Redlight King"
    INDEX 01 00:00:00
FILE "Redlight King\Something For The Pain\09 - Little Darlin.wav" WAVE
  TRACK 09 AUDIO
    TITLE "Little Darlin"
    PERFORMER "Redlight King"
    INDEX 01 00:00:00
FILE "Redlight King\Something For The Pain\10 - Past The Gates.wav" WAVE
  TRACK 10 AUDIO
    TITLE "Past The Gates"
    PERFORMER "Redlight King"
    INDEX 01 00:00:00
FILE "Redlight King\Something For The Pain\11 - When The Dust Settles Down.wav" WAVE
  TRACK 11 AUDIO
    TITLE "When The Dust Settles Down"
    PERFORMER "Redlight King"
    INDEX 01 00:00:00

Код:
Код:
[CUETools log; Date: 20.09.2013 15:44:54; Version: 2.1.4]
[CTDB TOCID: fAm0qPUdiABi_O8vaG70ZHdKr1M-] found.
Track | CTDB Status
  1   | (10/10) Accurately ripped
  2   | (10/10) Accurately ripped
  3   | (10/10) Accurately ripped
  4   | (10/10) Accurately ripped
  5   | (10/10) Accurately ripped
  6   | (10/10) Accurately ripped
  7   | (10/10) Accurately ripped
  8   | (10/10) Accurately ripped
  9   | (10/10) Accurately ripped
 10   | (10/10) Accurately ripped
 11   | (10/10) Accurately ripped
[AccurateRip ID: 000f2c3a-0083d40b-8a08a30b] disk not present in database.

Track Peak [ CRC32  ] [W/O NULL] [  LOG   ]
 --   97,7 [C663D947] [12141463]
 01   97,7 [AFF70518] [3397B046]   CRC32
 02   97,7 [04028351] [4A42F058]   CRC32
 03   97,7 [0C7975BE] [7403A334]   CRC32
 04   97,7 [B8EA04AC] [8EF66FF5]   CRC32
 05   97,7 [889A7077] [80F2F71D]   CRC32
 06   97,7 [DA140889] [E1827DF0]   CRC32
 07   97,7 [C303D0EE] [00C5EB95]   CRC32
 08   97,7 [32144BD6] [F0FAD8F3]   CRC32
 09   97,7 [4848F417] [3AA19096]   CRC32
 10   97,7 [414777EC] [6B246AE5]   CRC32
 11   97,7 [081C28BB] [28F5E9F5]   CRC32

Правила, инструкции, FAQ!!!
Торрент  Добавлен [16 мар 2014, 00:52] Скачать торрент Магнет ссылка
Скачать торрент
[ Размер 21.38 КБ / Просмотров 41 ]

Статус  
 
Размер  253.83 МБ
Приватный: Нет (DHT включён)
.torrent скачан  1
 


     Отправить личное сообщение
   
Страница 1 из 1
Показать сообщения за:  Поле сортировки  
Начать новую тему Ответить на тему


Сейчас этот форум просматривают: нет зарегистрированных пользователей и гости: 0


Вы не можете начинать темы
Вы не можете отвечать на сообщения
Вы не можете редактировать свои сообщения
Вы не можете удалять свои сообщения
Вы не можете добавлять вложения

Перейти:  
cron