Начать новую тему Ответить на тему
Статистика раздачи
Размер: 267.78 МБ | Добавлен: 16 мар 2014, 00:52 | Скачали: 0
Сидеров: 0  [0 байт/сек]    Личеров: 0  [0 байт/сек]
Пред. тема | След. тема 

Автор
Сообщение

СообщениеДобавлено: 16 мар 2014, 00:52 

Ответить с цитатой 

Redlight King - Irons in the Fire (2013)

Год: 2013
Жанр: Alternative Rock
Лейбл: Hollywood
Каталог #: 001805492
Продолжительность: 00:38:05
Кодек: FLAC
Тип рипа: tracks + .cue
Битрейт: Lossless
Треклист:
01. Dark Side Of The Moon (3:43)
02. Devil's Dance (3:12)
03. Wipe The Floor With You (3:18)
04. Redemption (3:40)
05. Times Are Hard (3:40)
06. Caught In The Middle (3:26)
07. Bleed (3:36)
08. Born To Rise (3:26)
09. Livin' To Ride (3:16)
10. Critical (3:33)
11. Every Second Counts (3:15)
Код:
Код:
Exact Audio Copy V1.0 beta 3 from 29. August 2011

EAC extraction logfile from 19. September 2013, 19:38

Redlight King / Irons In The Fire

Used drive  : ASUS    BW-12B1ST   Adapter: 0  ID: 1

Read mode               : Secure
Utilize accurate stream : Yes
Defeat audio cache      : Yes
Make use of C2 pointers : No

Read offset correction                      : 6
Overread into Lead-In and Lead-Out          : No
Fill up missing offset samples with silence : Yes
Delete leading and trailing silent blocks   : No
Null samples used in CRC calculations       : Yes
Used interface                              : Native Win32 interface for Win NT & 2000
Gap handling                                : Appended to previous track

Used output format              : User Defined Encoder
Selected bitrate                : 1024 kBit/s
Quality                         : High
Add ID3 tag                     : No
Command line compressor         : C:\Program Files (x86)\FLAC\flac.exe
Additional command line options : -8 -V -T "ARTIST=%artist%" -T "TITLE=%title%" -T "ALBUM=%albumtitle%" -T "DATE=%year%" -T "TRACKNUMBER=%tracknr%" -T "GENRE=%genre%" -T "PERFORMER=%albuminterpret%" -T "COMPOSER=%composer%" %haslyrics%--tag-from-file=LYRICS="%lyricsfile%"%haslyrics% -T "ALBUMARTIST=%albumartist%" -T "ALBUM ARTIST=%albumartist%" -T "DISCNUMBER=%cdnumber%" -T "TOTALDISCS=%totalcds%" -T "TOTALTRACKS=%numtracks%" -T "COMMENT=%comment%" %source% -o %dest%

TOC of the extracted CD

     Track |   Start  |  Length  | Start sector | End sector
    ---------------------------------------------------------
        1  |  0:00.00 |  3:42.46 |         0    |    16695
        2  |  3:42.46 |  3:12.32 |     16696    |    31127
        3  |  6:55.03 |  3:18.15 |     31128    |    45992
        4  | 10:13.18 |  3:39.58 |     45993    |    62475
        5  | 13:53.01 |  3:40.21 |     62476    |    78996
        6  | 17:33.22 |  3:26.24 |     78997    |    94470
        7  | 20:59.46 |  3:36.01 |     94471    |   110671
        8  | 24:35.47 |  3:26.07 |    110672    |   126128
        9  | 28:01.54 |  3:15.59 |    126129    |   140812
       10  | 31:17.38 |  3:32.53 |    140813    |   156765
       11  | 34:50.16 |  3:14.40 |    156766    |   171355
       12  | 40:36.56 |  5:10.65 |    182756    |   206070

Track  1

     Filename C:\Vegeta's Rips\01 - Dark Side Of The Moon.wav

     Pre-gap length  0:00:02.00

     Peak level 100.0 %
     Extraction speed 2.2 X
     Track quality 100.0 %
     Test CRC 306A8E7D
     Copy CRC 306A8E7D
     Track not present in AccurateRip database
     Copy OK

Track  2

     Filename C:\Vegeta's Rips\02 - Devil's Dance.wav

     Peak level 100.0 %
     Extraction speed 2.3 X
     Track quality 100.0 %
     Test CRC D47C159C
     Copy CRC D47C159C
     Track not present in AccurateRip database
     Copy OK

Track  3

     Filename C:\Vegeta's Rips\03 - Wipe The Floor With You.wav

     Peak level 100.0 %
     Extraction speed 1.8 X
     Track quality 99.9 %
     Test CRC 0FB48103
     Copy CRC 0FB48103
     Track not present in AccurateRip database
     Copy OK

Track  4

     Filename C:\Vegeta's Rips\04 - Redemption.wav

     Peak level 100.0 %
     Extraction speed 2.0 X
     Track quality 99.9 %
     Test CRC 068BFB84
     Copy CRC 068BFB84
     Track not present in AccurateRip database
     Copy OK

Track  5

     Filename C:\Vegeta's Rips\05 - Times Are Hard.wav

     Peak level 100.0 %
     Extraction speed 2.8 X
     Track quality 100.0 %
     Test CRC BCA49772
     Copy CRC BCA49772
     Track not present in AccurateRip database
     Copy OK

Track  6

     Filename C:\Vegeta's Rips\06 - Caught In The Middle.wav

     Peak level 100.0 %
     Extraction speed 3.0 X
     Track quality 100.0 %
     Test CRC 3667509B
     Copy CRC 3667509B
     Track not present in AccurateRip database
     Copy OK

Track  7

     Filename C:\Vegeta's Rips\07 - Bleed.wav

     Peak level 100.0 %
     Extraction speed 3.1 X
     Track quality 100.0 %
     Test CRC 8A2CA3B9
     Copy CRC 8A2CA3B9
     Track not present in AccurateRip database
     Copy OK

Track  8

     Filename C:\Vegeta's Rips\08 - Born To Rise.wav

     Peak level 100.0 %
     Extraction speed 3.2 X
     Track quality 100.0 %
     Test CRC A16B1A48
     Copy CRC A16B1A48
     Track not present in AccurateRip database
     Copy OK

Track  9

     Filename C:\Vegeta's Rips\09 - Livin' To Ride.wav

     Peak level 100.0 %
     Extraction speed 3.3 X
     Track quality 100.0 %
     Test CRC B85D872F
     Copy CRC B85D872F
     Track not present in AccurateRip database
     Copy OK

Track 10

     Filename C:\Vegeta's Rips\10 - Critical.wav

     Peak level 100.0 %
     Extraction speed 3.5 X
     Track quality 100.0 %
     Test CRC DFC0137B
     Copy CRC DFC0137B
     Track not present in AccurateRip database
     Copy OK

Track 11

     Filename C:\Vegeta's Rips\11 - Every Second Counts.wav

     Peak level 100.0 %
     Extraction speed 2.4 X
     Track quality 99.9 %
     Test CRC E48E4CEC
     Copy CRC E48E4CEC
     Track not present in AccurateRip database
     Copy OK

None of the tracks are present in the AccurateRip database

No errors occurred

End of status report

---- CUETools DB Plugin V2.1.3

[CTDB TOCID: b.1jtTsmF4dtEHHerDarYCo2WqY-] disk not present in database, Submit result: b.1jtTsmF4dtEHHerDarYCo2WqY- has been uploaded

==== Log checksum C0D15334B53CFF4902C6698C95830E9F9CAC01F34D858FE038E2982BC5396E66 ====

Код:
Код:
-----------------------

DON'T MODIFY THIS FILE

-----------------------

PERFORMER: auCDtect Task Manager, ver. 1.6.0 RC1 build 1.6.0.1
Copyright (c) 2008-2010 y-soft. All rights reserved
http:/y-soft.org

ANALYZER: auCDtect: CD records authenticity detector, version 0.8.2
Copyright (c) 2004 Oleg Berngardt. All rights reserved.
Copyright (c) 2004 Alexander Djourik. All rights reserved.

FILE: 05 - Times Are Hard.flac
  Size: 25660395 Hash: A47F44B674A8C85FE826D8DB302392EC Accuracy: -m0
  Conclusion: CDDA 100%
  Signature: 3D4EB5499E6915B266AEB4C00C811AFC7E21A6B3
FILE: 04 - Redemption.flac
  Size: 28066634 Hash: 84DBE0DEB389FBED13CF362B90767440 Accuracy: -m0
  Conclusion: CDDA 100%
  Signature: 03F69649B60112C28DD93437B7415B5F67B4C999
FILE: 03 - Wipe The Floor With You.flac
  Size: 24432191 Hash: 9D37269F4C13442EEEBBBE036A773B88 Accuracy: -m0
  Conclusion: CDDA 100%
  Signature: 16715D2D045928ABF3191526CE770C5BB50AF07B
FILE: 02 - Devil's Dance.flac
  Size: 24839674 Hash: DB6465C2BFD8F515F77584A04BCAA095 Accuracy: -m0
  Conclusion: CDDA 100%
  Signature: 8329E7FA9553F2DE7AB99F762758E1E0D95E478F
FILE: 01 - Dark Side Of The Moon.flac
  Size: 27831629 Hash: 8ACD78867265794F5743D3E347E96D9C Accuracy: -m0
  Conclusion: CDDA 100%
  Signature: F2A48D3575D8B3E2360527A75EA61352A0671A05
FILE: 11 - Every Second Counts.flac
  Size: 19006904 Hash: 520FE302126DDBBDD5B8059F5798B065 Accuracy: -m0
  Conclusion: CDDA 99%
  Signature: 55923FED4322616885E187347061EC8B548494A0
FILE: 10 - Critical.flac
  Size: 25217053 Hash: B4F5AB6831ADFDBBEFE5FAFAB35EA0E8 Accuracy: -m0
  Conclusion: CDDA 100%
  Signature: 02E641A107FDFD7A72459B0132EEA1BA991A74D1
FILE: 09 - Livin' To Ride.flac
  Size: 24967110 Hash: AE797A8AE96F4A9A28277771B5414A6E Accuracy: -m0
  Conclusion: CDDA 100%
  Signature: 5B03F6BA730B602CA2D7BD5E2A999394EF21C15E
FILE: 08 - Born To Rise.flac
  Size: 26758728 Hash: C5D653C54D66EF086A0CD2B830E015DD Accuracy: -m0
  Conclusion: CDDA 100%
  Signature: 66FF0B6ED7F78A1EC2B1E7767E3FFC1D41607F68
FILE: 07 - Bleed.flac
  Size: 27027560 Hash: C5D5F326979C904425C9704120F6A955 Accuracy: -m0
  Conclusion: CDDA 100%
  Signature: F5E4C4B64ED3284CE307F039DDB79DD3414A17BC
FILE: 06 - Caught In The Middle.flac
  Size: 26881195 Hash: 3AD772762E0DF353B1E3F0C3C46B4782 Accuracy: -m0
  Conclusion: CDDA 100%
  Signature: 8860AB458684F7134ECE5DA2C8048CF4725D736C

Код:
Код:
REM GENRE "Alternative Rap"
REM DATE 2013
REM DISCID A30ABB0C
REM COMMENT "ExactAudioCopy v1.0b3"
CATALOG 0050087285388
PERFORMER "Redlight King"
TITLE "Irons In The Fire"
FILE "01 - Dark Side Of The Moon.wav" WAVE
  TRACK 01 AUDIO
    TITLE "Dark Side Of The Moon"
    PERFORMER "Redlight King"
    ISRC USHR11334730
    INDEX 01 00:00:00
FILE "02 - Devil's Dance.wav" WAVE
  TRACK 02 AUDIO
    TITLE "Devil's Dance"
    PERFORMER "Redlight King"
    ISRC USHR11334731
    INDEX 01 00:00:00
FILE "03 - Wipe The Floor With You.wav" WAVE
  TRACK 03 AUDIO
    TITLE "Wipe The Floor With You"
    PERFORMER "Redlight King"
    ISRC USHR11334732
    INDEX 01 00:00:00
FILE "04 - Redemption.wav" WAVE
  TRACK 04 AUDIO
    TITLE "Redemption"
    PERFORMER "Redlight King"
    ISRC USHR11334442
    INDEX 01 00:00:00
FILE "05 - Times Are Hard.wav" WAVE
  TRACK 05 AUDIO
    TITLE "Times Are Hard"
    PERFORMER "Redlight King"
    ISRC USHR11334734
    INDEX 01 00:00:00
FILE "06 - Caught In The Middle.wav" WAVE
  TRACK 06 AUDIO
    TITLE "Caught In The Middle"
    PERFORMER "Redlight King"
    ISRC USHR11334735
    INDEX 01 00:00:00
FILE "07 - Bleed.wav" WAVE
  TRACK 07 AUDIO
    TITLE "Bleed"
    PERFORMER "Redlight King"
    ISRC USHR11334736
    INDEX 01 00:00:00
FILE "08 - Born To Rise.wav" WAVE
  TRACK 08 AUDIO
    TITLE "Born To Rise"
    PERFORMER "Redlight King"
    ISRC USHR11334737
    INDEX 01 00:00:00
FILE "09 - Livin' To Ride.wav" WAVE
  TRACK 09 AUDIO
    TITLE "Livin' To Ride"
    PERFORMER "Redlight King"
    ISRC USHR11334738
    INDEX 01 00:00:00
FILE "10 - Critical.wav" WAVE
  TRACK 10 AUDIO
    TITLE "Critical"
    PERFORMER "Redlight King"
    ISRC USHR11334739
    INDEX 01 00:00:00
FILE "11 - Every Second Counts.wav" WAVE
  TRACK 11 AUDIO
    TITLE "Every Second Counts"
    PERFORMER "Redlight King"
    ISRC USHR11334740
    INDEX 01 00:00:00
  TRACK 12 MODEx/2xxx
    TITLE "Data"
    PERFORMER "Redlight King"
    INDEX 00 03:14:40

Код:
Код:
[CUETools log; Date: 20.09.2013 15:13:41; Version: 2.1.4]
CD-Extra data track length 05:10:65.
[CTDB TOCID: b.1jtTsmF4dtEHHerDarYCo2WqY-] found.
Track | CTDB Status
  1   | (1/1) Accurately ripped
  2   | (1/1) Accurately ripped
  3   | (1/1) Accurately ripped
  4   | (1/1) Accurately ripped
  5   | (1/1) Accurately ripped
  6   | (1/1) Accurately ripped
  7   | (1/1) Accurately ripped
  8   | (1/1) Accurately ripped
  9   | (1/1) Accurately ripped
 10   | (1/1) Accurately ripped
 11   | (1/1) Accurately ripped
[AccurateRip ID: 00105484-008f31a1-a30abb0c] disk not present in database.

Track Peak [ CRC32  ] [W/O NULL] [  LOG   ]
 --  100,0 [C839BE7E] [D21B971C]
 01  100,0 [306A8E7D] [CCE8D7FD]   CRC32
 02  100,0 [D47C159C] [3F7CEE50]   CRC32
 03  100,0 [0FB48103] [4214F744]   CRC32
 04  100,0 [068BFB84] [58C6E540]   CRC32
 05  100,0 [BCA49772] [FC47DA53]   CRC32
 06  100,0 [3667509B] [139B7C8F]   CRC32
 07  100,0 [8A2CA3B9] [5C8C5E6F]   CRC32
 08  100,0 [A16B1A48] [3A4015F7]   CRC32
 09  100,0 [B85D872F] [5CA8011B]   CRC32
 10  100,0 [DFC0137B] [8D4984D0]   CRC32
 11  100,0 [E48E4CEC] [AFCE88F8]   CRC32

Правила, инструкции, FAQ!!!
Торрент  Добавлен [16 мар 2014, 00:52] Скачать торрент Магнет ссылка
Скачать торрент
[ Размер 12 КБ / Просмотров 10 ]

Статус  
 
Размер  267.78 МБ
Приватный: Нет (DHT включён)
.torrent скачан  0
 


     Отправить личное сообщение
   
Страница 1 из 1
Показать сообщения за:  Поле сортировки  
Начать новую тему Ответить на тему


Сейчас этот форум просматривают: нет зарегистрированных пользователей и гости: 0


Вы не можете начинать темы
Вы не можете отвечать на сообщения
Вы не можете редактировать свои сообщения
Вы не можете удалять свои сообщения
Вы не можете добавлять вложения

Перейти:  
cron
cron