Начать новую тему Ответить на тему
Статистика раздачи
Размер: 451.59 МБ | Добавлен: 16 мар 2014, 00:47 | Скачали: 0
Сидеров: 3  [0 байт/сек]    Личеров: 1  [0 байт/сек]
Пред. тема | След. тема 

Автор
Сообщение

СообщениеДобавлено: 16 мар 2014, 00:47 

Ответить с цитатой 

Red Hot Chili Peppers - What hits!? (1992)

Год: 1992
Жанр: Alternative Rock
Продолжительность: 01:07:18

Кодек: FLAC
Битрейт: Lossless

Треклист:
1. Higher Ground (3:22)
2. Fight Like A Brave (3:51)
3. Behind The Sun (4:39)
4. Me & My Friends (3:06)
5. Backwoods (3:05)
6. True Men Don't Kill Coyotes (3:37)
7. Fire (2:01)
8. Get Up And Jump (2:50)
9. Knock Me Down (3:42)
10. Under The Bridge (4:25)
11. Show Me Your Soul (4:20)
12. If You Want Me To Stay (4:05)
13. Hollywood (5:01)
14. Jungle Man (4:07)
15. The Brothers Cup (3:27)
16. Taste The Pain (4:28)
17. Catholic School Girls Rule (1:55)
18. Johnny Kick A Hole In The Sky (5:10)
Код:
Код:
Exact Audio Copy V0.99 prebeta 5 from 4. May 2009

Отчёт EAC об извлечении, выполненном 14. декабря 2013, 19:40

Unknown Artist / Unknown Title

Дисковод: Optiarc DVD RW AD-5280S   Adapter: 1  ID: 0

Режим чтения                 : Достоверность
Использование точного потока : Да
Отключение кэша аудио        : Да
Использование указателей C2  : Нет

Коррекция смещения при чтении                     : 48
Способность читать области Lead-in и Lead-out     : Нет
Заполнение пропущенных сэмплов тишиной            : Да
Удаление блоков с тишиной в начале и конце        : Нет
При вычислениях CRC использовались нулевые сэмплы : Нет
Интерфейс                                         : Встроенный Win32-интерфейс для Win NT/2000

Выходной формат          : Пользовательский кодировщик
Выбранный битрейт        : 768 kBit/s
Качество                 : Высокий
Добавление ID3-тэга      : Нет
Утилита сжатия           : C:\Program Files\Exact Audio Copy\FLAC\FLAC.EXE
Дополнительные параметры : -8 -V -T "ARTIST=%a" -T "TITLE=%t" -T "ALBUM=%g" -T "DATE=%y" -T "TRACKNUMBER=%n" -T "GENRE=%m" -T "COMMENT=%e" %s -o %d

TOC извлечённого CD

     Трек |   Старт  | Длительность | Начальный сектор | Конечный сектор
    ---------------------------------------------------------------------
       1  |  0:00.00 |    3:22.13   |           0      |      15162
       2  |  3:22.13 |    3:51.35   |       15163      |      32522
       3  |  7:13.48 |    4:39.27   |       32523      |      53474
       4  | 11:53.00 |    3:06.33   |       53475      |      67457
       5  | 14:59.33 |    3:05.22   |       67458      |      81354
       6  | 18:04.55 |    3:37.43   |       81355      |      97672
       7  | 21:42.23 |    2:01.70   |       97673      |     106817
       8  | 23:44.18 |    2:50.02   |      106818      |     119569
       9  | 26:34.20 |    3:42.05   |      119570      |     136224
      10  | 30:16.25 |    4:25.63   |      136225      |     156162
      11  | 34:42.13 |    4:20.67   |      156163      |     175729
      12  | 39:03.05 |    4:05.13   |      175730      |     194117
      13  | 43:08.18 |    5:01.32   |      194118      |     216724
      14  | 48:09.50 |    4:07.38   |      216725      |     235287
      15  | 52:17.13 |    3:27.05   |      235288      |     250817
      16  | 55:44.18 |    4:28.22   |      250818      |     270939
      17  | 60:12.40 |    1:55.38   |      270940      |     279602
      18  | 62:08.03 |    5:10.10   |      279603      |     302862

Характеристики диапазона извлечения и сообщения об ошибках

Выбранный диапазон

     Имя файла C:\Users\Герман\Downloads\Red Hot Chili Peppers - What hits!\Red Hot Chili Peppers - What hits!.wav

     Пиковый уровень 100.0 %
     Качество диапазона 100.0 %
     CRC теста 8D42201C
     CRC копии 8D42201C
     Копирование... OK

Ошибок не произошло

Конец отчёта
Код:
Код:
-----------------------

DON'T MODIFY THIS FILE

-----------------------

PERFORMER: auCDtect Task Manager, ver. 1.5.1RC6 build 1.5.1.7
Copyright (c) 2008-2010 y-soft. All rights reserved
http:/y-soft.org

ANALYZER: auCDtect: CD records authenticity detector, version 0.8.2
Copyright (c) 2004 Oleg Berngardt. All rights reserved.
Copyright (c) 2004 Alexander Djourik. All rights reserved.

FILE: Red Hot Chili Peppers - What hits!.flac
  Size: 472547313 Hash: F330530E6F77766399F9B2DD58766B91 Accuracy: -m0
  Conclusion: CDDA 100%
  Signature: E9F7E54C0A87A9ABBDC906D7138BA1BDCECCF7AE
Правила, инструкции, FAQ!!!
Торрент  Добавлен [16 мар 2014, 00:47] Скачать торрент Магнет ссылка
Скачать торрент
[ Размер 18.75 КБ / Просмотров 24 ]

Статус  
 
Размер  451.59 МБ
Приватный: Нет (DHT включён)
.torrent скачан  0
 


     Отправить личное сообщение
   
Страница 1 из 1
Показать сообщения за:  Поле сортировки  
Начать новую тему Ответить на тему


Сейчас этот форум просматривают: нет зарегистрированных пользователей и гости: 0


Вы не можете начинать темы
Вы не можете отвечать на сообщения
Вы не можете редактировать свои сообщения
Вы не можете удалять свои сообщения
Вы не можете добавлять вложения

Перейти:  
cron