Начать новую тему Ответить на тему
Статистика раздачи
Размер: 196.38 МБ | Добавлен: 16 мар 2014, 00:10 | Скачали: 1
Сидеров: 2  [0 байт/сек]    Личеров: 1  [0 байт/сек]
Пред. тема | След. тема 

Автор
Сообщение

СообщениеДобавлено: 16 мар 2014, 00:10 

Ответить с цитатой 

Raw Material - Raw Material (1970) Reissue 2003

Жанр: Psychedelic Rock/Prog Rock
Год: 1970
Страна: UK
Released: 2003/Italy
Label: Akarma
Catalog#: AK249
Аудио кодек: FLAC
Тип рипа: tracks+.cue
Битрейт аудио: lossless
Продолжительность: 00:31:51
Источник-релизер: Сокол_04
Scans: в раздаче
Треклист:
01. Time and Illusion (7:31)
02. I'd Be Delighted (5:08)
03. Fighting Cock (3:49)
04. Pear on an Apple Tree (2:56)
05. Future Recollections (3:56)
06. Traveller Man (6:12)
07. Destruction of America (2:19)


Raw Material - один из самых незаслуженно забытых английский коллективов рубежа 60х 70х годов. Эта группа совместила в себе все модные направления своего времени - блюзовую основу композиций, тяжесть звучания, прогрессивность и психоделичность мелодий.
У истоков Raw Material стояли саксофонист Майкл Флетчер (ранее играл в Steam) и клавишник Колин Кэтт. Именно их инструменты стоят на первом плане альбома...
Выпустив ещё два альбома, шедевральный Time is (1971), On the frontiers (1973) и один сингл On the frontiers/Ships and sales (1973),- эта группа исчезла. О дальнейшей судьбе участников этого великолепного коллектива ничего не известно...

Musicians:
- Colin Catt - keyboards/vocal
- Dave Greene - guitar
- Phil Gunn -bass/acoustic guitar
- Michael Fletcher - sax/flute
- Paul Young - drums
Код:
Код:
Exact Audio Copy V0.99 prebeta 4 from 23. January 2008

EAC extraction logfile from 15. November 2009, 21:05

Raw Material / Raw Material

Used drive  : TSSTcorpCD/DVDW TS-L632D   Adapter: 0  ID: 1

Read mode               : Secure
Utilize accurate stream : Yes
Defeat audio cache      : Yes
Make use of C2 pointers : No

Read offset correction                      : 6
Overread into Lead-In and Lead-Out          : No
Fill up missing offset samples with silence : Yes
Delete leading and trailing silent blocks   : No
Null samples used in CRC calculations       : Yes
Used interface                              : Native Win32 interface for Win NT & 2000
Gap handling                                : Not detected, thus appended to previous track

Used output format              : User Defined Encoder
Selected bitrate                : 128 kBit/s
Quality                         : High
Add ID3 tag                     : No
Command line compressor         : C:\Program Files\FLAC\flac.exe
Additional command line options : -8 -V -T "ARTIST=%a" -T "TITLE=%t" -T "ALBUM=%g" -T "DATE=%y" -T "TRACKNUMBER=%n" -T "GENRE=%m" -T "COMMENT=%e" %s -o %d

TOC of the extracted CD

     Track |   Start  |  Length  | Start sector | End sector
    ---------------------------------------------------------
        1  |  0:00.00 |  7:30.70 |         0    |    33819
        2  |  7:30.70 |  5:08.29 |     33820    |    56948
        3  | 12:39.24 |  3:49.02 |     56949    |    74125
        4  | 16:28.26 |  2:55.54 |     74126    |    87304
        5  | 19:24.05 |  3:55.40 |     87305    |   104969
        6  | 23:19.45 |  6:12.34 |    104970    |   132903
        7  | 29:32.04 |  2:19.12 |    132904    |   143340

Track  1

     Filename D:\EAC\01 - Time and Illusion.wav

     Peak level 99.9 %
     Track quality 99.9 %
     Test CRC 63F5130F
     Copy CRC 63F5130F
     Track not present in AccurateRip database
     Copy OK

Track  2

     Filename D:\EAC\02 - I'd Be Delighted.wav

     Peak level 100.0 %
     Track quality 100.0 %
     Test CRC F03184E5
     Copy CRC F03184E5
     Track not present in AccurateRip database
     Copy OK

Track  3

     Filename D:\EAC\03 - Fighting Cock.wav

     Peak level 100.0 %
     Track quality 100.0 %
     Test CRC 0B6D98F4
     Copy CRC 0B6D98F4
     Track not present in AccurateRip database
     Copy OK

Track  4

     Filename D:\EAC\04 - Pear on an Apple Tree.wav

     Peak level 99.9 %
     Track quality 100.0 %
     Test CRC CBB2F72B
     Copy CRC CBB2F72B
     Track not present in AccurateRip database
     Copy OK

Track  5

     Filename D:\EAC\05 - Future Recollections.wav

     Peak level 99.9 %
     Track quality 100.0 %
     Test CRC 63577801
     Copy CRC 63577801
     Track not present in AccurateRip database
     Copy OK

Track  6

     Filename D:\EAC\06 - Traveller Man.wav

     Peak level 99.9 %
     Track quality 100.0 %
     Test CRC 415D63BD
     Copy CRC 415D63BD
     Track not present in AccurateRip database
     Copy OK

Track  7

     Filename D:\EAC\07 - Destruction of America.wav

     Peak level 99.9 %
     Track quality 99.9 %
     Test CRC EF2958EE
     Copy CRC EF2958EE
     Track not present in AccurateRip database
     Copy OK

None of the tracks are present in the AccurateRip database

No errors occurred

End of status report
Код:
Код:
-----------------------

DON'T MODIFY THIS FILE

-----------------------

PERFORMER: auCDtect Task Manager, ver. 1.6.0 RC1 build 1.6.0.1
Copyright (c) 2008-2010 y-soft. All rights reserved
http:/y-soft.org

ANALYZER: auCDtect: CD records authenticity detector, version 0.8.2
Copyright (c) 2004 Oleg Berngardt. All rights reserved.
Copyright (c) 2004 Alexander Djourik. All rights reserved.

FILE: 07 - Destruction of America.flac
  Size: 11854121 Hash: 81610A6EC338E9BFA0F852F6865DE721 Accuracy: -m0
  Conclusion: CDDA 100%
  Signature: 8DD4C73C3895E10A1876EF24D88BDFDECF268BBE
FILE: 06 - Traveller Man.flac
  Size: 45992691 Hash: 9712F3FDA16742FD4939E8F345AD0C10 Accuracy: -m0
  Conclusion: CDDA 99%
  Signature: 1F3F7B9EFC1804A28437B147C6BBE434A6597982
FILE: 05 - Future Recollections.flac
  Size: 22674446 Hash: FDFD5676D6B2CCB0F94DF447ABE726C6 Accuracy: -m0
  Conclusion: CDDA 100%
  Signature: 3C61250C235331487C90AD1F5649BB4018152696
FILE: 04 - Pear on an Apple Tree.flac
  Size: 19632990 Hash: 296B47CEE6BCF47AD94CE609B1876A41 Accuracy: -m0
  Conclusion: CDDA 100%
  Signature: 0CBF76BE63925E36CE1D414941F02E95EC52F371
FILE: 03 - Fighting Cock.flac
  Size: 22524444 Hash: 65C7BE5F71BB33017BCE836FC6FFC745 Accuracy: -m0
  Conclusion: CDDA 100%
  Signature: B258682AB1BB4B52681F7C0A04EBB1CB1A48086B
FILE: 02 - I'd Be Delighted.flac
  Size: 35006983 Hash: 5EE774CA649DCDDCFC96C1B4983F4C0F Accuracy: -m0
  Conclusion: CDDA 100%
  Signature: A781AE76DF10FA3BA93768377DEDE4A0419E0518
FILE: 01 - Time and Illusion.flac
  Size: 45628296 Hash: EB452F6C37FD4CBFB8B6A79138DDE87B Accuracy: -m0
  Conclusion: CDDA 100%
  Signature: 1AE12178FD1A26DD2C71D1753DC0B34D7A4DDC6F
Код:
Код:
REM GENRE "Progressive Rock"
REM DATE 1970
REM DISCID 54077707
REM COMMENT "ExactAudioCopy v0.99pb4"
PERFORMER "Raw Material"
TITLE "Raw Material"
FILE "01 - Time and Illusion.wav" WAVE
  TRACK 01 AUDIO
    TITLE "Time and Illusion"
    PERFORMER "Raw Material"
    INDEX 01 00:00:00
  TRACK 02 AUDIO
    TITLE "I'd Be Delighted"
    PERFORMER "Raw Material"
    INDEX 00 07:29:38
FILE "02 - I'd Be Delighted.wav" WAVE
    INDEX 01 00:00:00
  TRACK 03 AUDIO
    TITLE "Fighting Cock"
    PERFORMER "Raw Material"
    INDEX 00 05:06:67
FILE "03 - Fighting Cock.wav" WAVE
    INDEX 01 00:00:00
  TRACK 04 AUDIO
    TITLE "Pear on an Apple Tree"
    PERFORMER "Raw Material"
    INDEX 00 03:47:57
FILE "04 - Pear on an Apple Tree.wav" WAVE
    INDEX 01 00:00:00
  TRACK 05 AUDIO
    TITLE "Future Recollections"
    PERFORMER "Raw Material"
    INDEX 00 02:54:38
FILE "05 - Future Recollections.wav" WAVE
    INDEX 01 00:00:00
  TRACK 06 AUDIO
    TITLE "Traveller Man"
    PERFORMER "Raw Material"
    INDEX 00 03:54:02
FILE "06 - Traveller Man.wav" WAVE
    INDEX 01 00:00:00
  TRACK 07 AUDIO
    TITLE "Destruction of America"
    PERFORMER "Raw Material"
    INDEX 00 06:10:69
FILE "07 - Destruction of America.wav" WAVE
    INDEX 01 00:00:00
Правила, инструкции, FAQ!!!
Торрент  Добавлен [16 мар 2014, 00:10] Скачать торрент Магнет ссылка
Скачать торрент
[ Размер 16.93 КБ / Просмотров 51 ]

Статус  
 
Размер  196.38 МБ
Приватный: Нет (DHT включён)
.torrent скачан  1
 


     Отправить личное сообщение
   
Страница 1 из 1
Показать сообщения за:  Поле сортировки  
Начать новую тему Ответить на тему


Сейчас этот форум просматривают: нет зарегистрированных пользователей и гости: 0


Вы не можете начинать темы
Вы не можете отвечать на сообщения
Вы не можете редактировать свои сообщения
Вы не можете удалять свои сообщения
Вы не можете добавлять вложения

Перейти:  
cron
cron