Начать новую тему Ответить на тему
Статистика раздачи
Размер: 686.27 МБ | Добавлен: 16 мар 2014, 00:53 | Скачали: 1
Сидеров: 8  [0 байт/сек]    Личеров: 1  [0 байт/сек]
Пред. тема | След. тема 

Автор
Сообщение

СообщениеДобавлено: 16 мар 2014, 00:53 

Ответить с цитатой 

Radiohead - Kid A (2000)

Год: 2000/ 2009
Страна-производитель диска: Япония
Издатель (лейбл): EMI Records Ltd.
Номер по каталогу #: TOCP-70729-30
Жанр: Rock, Alternative
Продолжительность: 01:56:18
Кодек: FLAC(*.flac)
Битрейт: Lossless
Тип рипа: image+.cue
Спасибо: vladaz
Заигрывания в конце 90-х годов прошлого века рокеров с набирающей бешеную популярность электронной музыкой породило много интересных, а порой и нелепых творений. Не отставали от мейнстрима и Radiohead. Выдав на гора в 1997 году довольно интересный альбом OK Computer Йорк и товарищи не остановились на достигнутом и продолжили эксперименты с электроникой. Вряд ли ошибусь, если скажу, что Kid A стал значительной вехой в творчестве этой неординарной команды задав вектор музыкальных интересов на долгие годы вперёд, которые можно условно охарактеризовать как электронная психоделика.
Здесь предлагается японское издание трехдискового делюкса, но по понятным причинам выложил только музыку.
CD 1 (original):
Продолжитeльность: 00:49:59
Треклист:
01. Everything In Its Right Place - 04:11
02. Kid A - 04:44
03. The National Anthem - 05:51
04. How To Disappear Completely - 05:56
05. Treefingers - 03:42
06. Optimistic - 05:15
07. In Limbo - 03:31
08. Idioteque - 05:09
09. Morning Bell - 04:35
10. Motion Picture Soundtrack - 07:01
Код:
Код:
Exact Audio Copy V1.0 beta 3 from 29. August 2011

EAC extraction logfile from 24. March 2013, 16:38

Radiohead / Kid A

Used drive  : TEAC    DV-W516GD   Adapter: 0  ID: 0

Read mode               : Secure
Utilize accurate stream : Yes
Defeat audio cache      : Yes
Make use of C2 pointers : No

Read offset correction                      : 6
Overread into Lead-In and Lead-Out          : No
Fill up missing offset samples with silence : Yes
Delete leading and trailing silent blocks   : No
Null samples used in CRC calculations       : Yes
Used interface                              : Installed external ASPI interface

Used output format : Internal WAV Routines
Sample format      : 44.100 Hz; 16 Bit; Stereo

TOC of the extracted CD

     Track |   Start  |  Length  | Start sector | End sector
    ---------------------------------------------------------
        1  |  0:00.00 |  4:11.32 |         0    |    18856
        2  |  4:11.32 |  4:44.38 |     18857    |    40194
        3  |  8:55.70 |  5:51.52 |     40195    |    66571
        4  | 14:47.47 |  5:56.25 |     66572    |    93296
        5  | 20:43.72 |  3:42.45 |     93297    |   109991
        6  | 24:26.42 |  5:15.73 |    109992    |   133689
        7  | 29:42.40 |  3:31.00 |    133690    |   149514
        8  | 33:13.40 |  5:09.07 |    149515    |   172696
        9  | 38:22.47 |  4:35.60 |    172697    |   193381
       10  | 42:58.32 |  7:01.35 |    193382    |   224991

Range status and errors

Selected range

     Filename D:\Media\Radiohead - Kid A (CD1)\Radiohead - Kid A.wav

     Peak level 98.9 %
     Extraction speed 2.4 X
     Range quality 100.0 %
     Test CRC 656531BC
     Copy CRC 656531BC
     Copy OK

No errors occurred

AccurateRip summary

Track  1  cannot be verified as accurate (confidence 110)  [CA09109A], AccurateRip returned [95A32102]  (AR v2)
Track  2  cannot be verified as accurate (confidence 110)  [D06ECE33], AccurateRip returned [A6AA06C0]  (AR v2)
Track  3  cannot be verified as accurate (confidence 109)  [067B4E9C], AccurateRip returned [CB381778]  (AR v2)
Track  4  cannot be verified as accurate (confidence 110)  [8405CD4D], AccurateRip returned [23936F4B]  (AR v2)
Track  5  cannot be verified as accurate (confidence 109)  [4E543B50], AccurateRip returned [61489801]  (AR v2)
Track  6  cannot be verified as accurate (confidence 110)  [55A6F691], AccurateRip returned [33F3A705]  (AR v2)
Track  7  cannot be verified as accurate (confidence 109)  [F47F1853], AccurateRip returned [1706FB12]  (AR v2)
Track  8  cannot be verified as accurate (confidence 110)  [4FD81F45], AccurateRip returned [CFE4D376]  (AR v2)
Track  9  cannot be verified as accurate (confidence 109)  [B709D0BE], AccurateRip returned [04FBD94C]  (AR v2)
Track 10  cannot be verified as accurate (confidence 109)  [D3E5A754], AccurateRip returned [D901DC09]  (AR v2)

No tracks could be verified as accurate
You may have a different pressing from the one(s) in the database

End of status report

---- CUETools DB Plugin V2.1.3

[CTDB TOCID: gS5fU8t0Jv1zZQu6ueluBhQKv5A-] found, Submit result: gS5fU8t0Jv1zZQu6ueluBhQKv5A- has been confirmed
[528b25bf] (146/255) Accurately ripped
[4f8b74f2] (106/255) No match
[696823ea] (001/255) No match
[65080bbb] (001/255) No match
[6f2e113f] (001/255) No match

==== Log checksum 2F2C184CCF5903EF07BD409A835D130F32B122A72FAB6C13627C617BFDF4B77F ====
Код:
Код:
-----------------------

DON'T MODIFY THIS FILE

-----------------------

PERFORMER: auCDtect Task Manager, ver. 1.6.0 RC1 build 1.6.0.1
Copyright (c) 2008-2010 y-soft. All rights reserved
http:/y-soft.org

ANALYZER: auCDtect: CD records authenticity detector, version 0.8.2
Copyright (c) 2004 Oleg Berngardt. All rights reserved.
Copyright (c) 2004 Alexander Djourik. All rights reserved.

FILE: Radiohead - Kid A.flac
  Size: 308690971 Hash: D1A4768327B5923F1FBB9BA5974AC0A8 Accuracy: -m0
  Conclusion: CDDA 99%
  Signature: 056EC5DA20FA7BE05F30CA681348237CEE379ADB
Код:
Код:
REM GENRE "Alt. Rock"
REM DATE 2000
REM DISCID 970BB70A
REM COMMENT "ExactAudioCopy v1.0b3"
PERFORMER "Radiohead"
TITLE "Kid A"
FILE "Radiohead - Kid A.wav" WAVE
  TRACK 01 AUDIO
    TITLE "Everything In Its Right Place"
    PERFORMER "Radiohead"
    INDEX 01 00:00:00
  TRACK 02 AUDIO
    TITLE "Kid A"
    PERFORMER "Radiohead"
    INDEX 01 04:11:32
  TRACK 03 AUDIO
    TITLE "The National Anthem"
    PERFORMER "Radiohead"
    INDEX 01 08:55:70
  TRACK 04 AUDIO
    TITLE "How To Disappear Completely"
    PERFORMER "Radiohead"
    INDEX 01 14:47:47
  TRACK 05 AUDIO
    TITLE "Treefingers"
    PERFORMER "Radiohead"
    INDEX 00 20:42:35
    INDEX 01 20:43:72
  TRACK 06 AUDIO
    TITLE "Optimistic"
    PERFORMER "Radiohead"
    INDEX 00 24:26:10
    INDEX 01 24:26:42
  TRACK 07 AUDIO
    TITLE "In Limbo"
    PERFORMER "Radiohead"
    INDEX 01 29:42:40
  TRACK 08 AUDIO
    TITLE "Idioteque"
    PERFORMER "Radiohead"
    INDEX 01 33:13:40
  TRACK 09 AUDIO
    TITLE "Morning Bell"
    PERFORMER "Radiohead"
    INDEX 01 38:22:47
  TRACK 10 AUDIO
    TITLE "Motion Picture Soundtrack"
    PERFORMER "Radiohead"
    INDEX 00 42:51:35
    INDEX 01 42:58:32

Продолжитeльность: 01:06:18
Трeклист:
01. Everything In Its Right Place - 06:04
02. How To Disappear Completely - 06:37
03. Idioteque - 04:12
04. The National Anthem - 04:43
05. Optimistic (Live) - 04:39
06. Morning Bell (Live) - 04:25
07. The National Anthem (Live) - 05:01
08. How To Disappear Completely (Live) - 05:56
09. In Limbo (Live) - 04:42
10. Idioteque (Live) - 04:12
11. Everything In Its Right Place (Live) - 06:42
12. Motion Picture Soundtrack (Live) - 03:55
13. True Love Waits (Live) - 05:04
Код:
Код:
Exact Audio Copy V1.0 beta 3 from 29. August 2011

EAC extraction logfile from 24. March 2013, 18:52

Radiohead / Kid A

Used drive  : TEAC    DV-W516GD   Adapter: 0  ID: 0

Read mode               : Secure
Utilize accurate stream : Yes
Defeat audio cache      : Yes
Make use of C2 pointers : No

Read offset correction                      : 6
Overread into Lead-In and Lead-Out          : No
Fill up missing offset samples with silence : Yes
Delete leading and trailing silent blocks   : No
Null samples used in CRC calculations       : Yes
Used interface                              : Installed external ASPI interface

Used output format : Internal WAV Routines
Sample format      : 44.100 Hz; 16 Bit; Stereo

TOC of the extracted CD

     Track |   Start  |  Length  | Start sector | End sector
    ---------------------------------------------------------
        1  |  0:00.00 |  6:04.06 |         0    |    27305
        2  |  6:04.06 |  6:37.32 |     27306    |    57112
        3  | 12:41.38 |  4:12.04 |     57113    |    76016
        4  | 16:53.42 |  4:43.66 |     76017    |    97307
        5  | 21:37.33 |  4:39.14 |     97308    |   118246
        6  | 26:16.47 |  4:25.63 |    118247    |   138184
        7  | 30:42.35 |  5:01.29 |    138185    |   160788
        8  | 35:43.64 |  5:56.48 |    160789    |   187536
        9  | 41:40.37 |  4:42.34 |    187537    |   208720
       10  | 46:22.71 |  4:12.52 |    208721    |   227672
       11  | 50:35.48 |  6:42.64 |    227673    |   257886
       12  | 57:18.37 |  3:55.12 |    257887    |   275523
       13  | 61:13.49 |  5:04.69 |    275524    |   298392

Range status and errors

Selected range

     Filename D:\Media\Radiohead - Kid A (CD2)\Radiohead - Kid A.wav

     Peak level 98.0 %
     Extraction speed 2.4 X
     Range quality 100.0 %
     Test CRC 9B92E524
     Copy CRC 9B92E524
     Copy OK

No errors occurred

AccurateRip summary

Track  1  cannot be verified as accurate (confidence 54)  [2014BD5B], AccurateRip returned [B31EB179]  (AR v2)
Track  2  cannot be verified as accurate (confidence 54)  [8304C18E], AccurateRip returned [D1B29ABE]  (AR v2)
Track  3  cannot be verified as accurate (confidence 54)  [58B1E021], AccurateRip returned [41DF5FFE]  (AR v2)
Track  4  cannot be verified as accurate (confidence 54)  [E85AD5A8], AccurateRip returned [7AE329F5]  (AR v2)
Track  5  cannot be verified as accurate (confidence 52)  [7B4D83B8], AccurateRip returned [92D7D3FA]  (AR v2)
Track  6  cannot be verified as accurate (confidence 54)  [0EFC379F], AccurateRip returned [766866C9]  (AR v2)
Track  7  cannot be verified as accurate (confidence 54)  [0F76175B], AccurateRip returned [8BD53785]  (AR v2)
Track  8  cannot be verified as accurate (confidence 54)  [6AE16011], AccurateRip returned [73D3436B]  (AR v2)
Track  9  cannot be verified as accurate (confidence 54)  [072577E8], AccurateRip returned [21D0CDC1]  (AR v2)
Track 10  cannot be verified as accurate (confidence 54)  [48AB4EE5], AccurateRip returned [B759F2C3]  (AR v2)
Track 11  cannot be verified as accurate (confidence 54)  [6A029DA8], AccurateRip returned [680F0C1E]  (AR v2)
Track 12  cannot be verified as accurate (confidence 54)  [8EB8946A], AccurateRip returned [EEC64524]  (AR v2)
Track 13  cannot be verified as accurate (confidence 54)  [06069767], AccurateRip returned [12DD68EE]  (AR v2)

No tracks could be verified as accurate
You may have a different pressing from the one(s) in the database

End of status report

---- CUETools DB Plugin V2.1.3

[CTDB TOCID: 60KXPxrWxR8YcMlWkddzOqQAQ8s-] found, Submit result: 60KXPxrWxR8YcMlWkddzOqQAQ8s- has been confirmed
[42f76a44] (95/96) Accurately ripped
[7480668e] (01/96) No match

==== Log checksum 0C7581893491A2990BFDADA57EA86C9EFEEE30D1B6360BEBB1F507CFCCBAA4D5 ====

Код:
Код:
-----------------------

DON'T MODIFY THIS FILE

-----------------------

PERFORMER: auCDtect Task Manager, ver. 1.6.0 RC1 build 1.6.0.1
Copyright (c) 2008-2010 y-soft. All rights reserved
http:/y-soft.org

ANALYZER: auCDtect: CD records authenticity detector, version 0.8.2
Copyright (c) 2004 Oleg Berngardt. All rights reserved.
Copyright (c) 2004 Alexander Djourik. All rights reserved.

FILE: Radiohead - Kid A.flac
  Size: 410897396 Hash: 0FB76D7AE2691CEF4BD8ACFC2171CC6E Accuracy: -m0
  Conclusion: CDDA 100%
  Signature: 77A9D2AFC7F3DCDD9570FDECF0F96A6A454E4271

Код:
Код:
REM GENRE "Alt. Rock"
REM DATE 2000
REM DISCID BA0F8A0D
REM COMMENT "ExactAudioCopy v1.0b3"
PERFORMER "Radiohead"
TITLE "Kid A"
FILE "Radiohead - Kid A.wav" WAVE
  TRACK 01 AUDIO
    TITLE "Everything In Its Right Place"
    PERFORMER "Radiohead"
    INDEX 01 00:00:00
  TRACK 02 AUDIO
    TITLE "How To Disappear Completely"
    PERFORMER "Radiohead"
    INDEX 00 06:03:56
    INDEX 01 06:04:06
  TRACK 03 AUDIO
    TITLE "Idioteque"
    PERFORMER "Radiohead"
    INDEX 00 12:41:13
    INDEX 01 12:41:38
  TRACK 04 AUDIO
    TITLE "The National Anthem"
    PERFORMER "Radiohead"
    INDEX 00 16:53:17
    INDEX 01 16:53:42
  TRACK 05 AUDIO
    TITLE "Optimistic (Live)"
    PERFORMER "Radiohead"
    INDEX 00 21:36:08
    INDEX 01 21:37:33
  TRACK 06 AUDIO
    TITLE "Morning Bell (Live)"
    PERFORMER "Radiohead"
    INDEX 00 26:15:22
    INDEX 01 26:16:47
  TRACK 07 AUDIO
    TITLE "The National Anthem (Live)"
    PERFORMER "Radiohead"
    INDEX 01 30:42:35
  TRACK 08 AUDIO
    TITLE "How To Disappear Completely (Live)"
    PERFORMER "Radiohead"
    INDEX 00 35:42:39
    INDEX 01 35:43:64
  TRACK 09 AUDIO
    TITLE "In Limbo (Live)"
    PERFORMER "Radiohead"
    INDEX 00 41:38:33
    INDEX 01 41:40:37
  TRACK 10 AUDIO
    TITLE "Idioteque (Live)"
    PERFORMER "Radiohead"
    INDEX 00 46:21:46
    INDEX 01 46:22:71
  TRACK 11 AUDIO
    TITLE "Everything In Its Right Place (Live)"
    PERFORMER "Radiohead"
    INDEX 01 50:35:48
  TRACK 12 AUDIO
    TITLE "Motion Picture Soundtrack (Live)"
    PERFORMER "Radiohead"
    INDEX 01 57:18:37
  TRACK 13 AUDIO
    TITLE "True Love Waits (Live)"
    PERFORMER "Radiohead"
    INDEX 00 61:12:24
    INDEX 01 61:13:49

Правила, инструкции, FAQ!!!
Торрент  Добавлен [16 мар 2014, 00:53] Скачать торрент Магнет ссылка
Скачать торрент
[ Размер 14.63 КБ / Просмотров 72 ]

Статус  
 
Размер  686.27 МБ
Приватный: Нет (DHT включён)
.torrent скачан  1
 


     Отправить личное сообщение
   
Страница 1 из 1
Показать сообщения за:  Поле сортировки  
Начать новую тему Ответить на тему


Сейчас этот форум просматривают: нет зарегистрированных пользователей и гости: 0


Вы не можете начинать темы
Вы не можете отвечать на сообщения
Вы не можете редактировать свои сообщения
Вы не можете удалять свои сообщения
Вы не можете добавлять вложения

Перейти:  
cron