Начать новую тему Ответить на тему
Статистика раздачи
Размер: 1.27 ГБ | Добавлен: 16 мар 2014, 00:47 | Скачали: 0
Сидеров: 1  [0 байт/сек]    Личеров: 0  [0 байт/сек]
Пред. тема | След. тема 

Автор
Сообщение

СообщениеДобавлено: 16 мар 2014, 00:47 

Ответить с цитатой 

Quietdrive - 6 альбомов (2003 — 2012)

Год: 2003 — 2012
Жанр: Alternative rock, Pop punk
Продолжительность: 02:56:23

Тип рипа: Tracks+.cue
Кодек: FLAC
Битрейт: Lossless


Quietdrive - это альтернативная рок-группа из Миннеаполиса, штат Миннесота, образованная в 2002 году. Quietdrive выпустила свой дебютный альбом «When All That’s Left Is You» 30 мая 2006 года, совместно с Epic Records. В апреле 2008 года Quietdrive рассталась с Epic Records и выпустила свой новый альбом под названием «Deliverance» 14 октября 2008 года совместно с «Militia Group». В 2009 году они расстались с «Militia Group» и выпустила свой независимый EP под названием «Close Your Eyes» на их собственном лейбле «Sneaker 2 Bombs Records». Их третий студийный альбом под названием «Quietdrive», вышел 14 декабря 2010 года.

В девятом классе, Brandon Lanier как-то сказал Droo Hastings, что он очень неплохо играет на ударных, и что они должны создать группу вместе с ним и его другом Justin Bonhiver. Изначально группа была трио, где Hastings был вокалистом и бас-гитаристом, Lanier играл на ударных, и Bonhiver на гитаре. Затем группа разместила объявление о поиске вокалиста на сайте MP3.com. Kevin Truckenmiller присоединился к группе после того, как предоставил свои сольные работы для прослушивания, включая первоначальную версию песни I Go Both Ways. После этого Matt Kirby начал посещать Колледж святого Бенедикта вместе с Truckenmiller. В конечном итоге группа сформировалась в 2002 году под названием «Sneaker 2 Bombs» как хард-рок группа, отражающая стиль местной музыкальной сцены Миннеаполиса.

Quietdrive изначально выступала в молодежном центре The Garage в Burnsville, Minnesota.
#77701. Rise From The Ashes (02:59)
02. Get Up (03:34)
03. Take A Drink (02:43)
04. Let Me Go In (02:39)
05. Rush Together (03:32)
06. Maybe Misery (02:59)
07. I Lie Awake (03:10)
08. The Season (03:01)
09. Time After Time (03:07)
10. Both Ways (03:39)
Код:
Код:
Exact Audio Copy V0.99 prebeta 3 from 28. July 2007

EAC extraction logfile from 19. May 2008, 13:38

Quietdrive / When All That's Left Is You

Used drive  : HL-DT-STDVD-ROM GDR8161B   Adapter: 1  ID: 0

Read mode               : Secure
Utilize accurate stream : Yes
Defeat audio cache      : Yes
Make use of C2 pointers : No

Read offset correction                      : 102
Overread into Lead-In and Lead-Out          : No
Fill up missing offset samples with silence : Yes
Delete leading and trailing silent blocks   : No
Null samples used in CRC calculations       : Yes
Used interface                              : Installed external ASPI interface
Gap handling                                : Appended to previous track

Used output format              : User Defined Encoder
Selected bitrate                : 192 kBit/s
Quality                         : High
Add ID3 tag                     : No
Command line compressor         : C:\Program Files\Exact Audio Copy\flac.exe
Additional command line options : -V -8 -T "artist=%a" -T "title=%t" -T "album=%g" -T "date=%y" -T "tracknumber=%n" -T "genre=%m" %s

TOC of the extracted CD

     Track |   Start  |  Length  | Start sector | End sector
    ---------------------------------------------------------
        1  |  0:00.00 |  2:59.40 |         0    |    13464
        2  |  2:59.40 |  3:34.73 |     13465    |    29587
        3  |  6:34.38 |  2:43.59 |     29588    |    41871
        4  |  9:18.22 |  2:39.23 |     41872    |    53819
        5  | 11:57.45 |  3:32.74 |     53820    |    69793
        6  | 15:30.44 |  2:59.18 |     69794    |    83236
        7  | 18:29.62 |  3:10.52 |     83237    |    97538
        8  | 21:40.39 |  3:01.42 |     97539    |   111155
        9  | 24:42.06 |  3:07.11 |    111156    |   125191
       10  | 27:49.17 |  3:39.17 |    125192    |   141633

Track  1

     Filename F:\torrents\Upload\Quietdrive - When All That's Left Is You [FLAC]\Quietdrive - 2006 - When All That's Left Is You\01 - Rise From the Ashes.wav

     Pre-gap length  0:00:02.00

     Peak level 99.9 %
     Track quality 100.0 %
     Test CRC B0A25C7F
     Copy CRC B0A25C7F
     Accurately ripped (confidence 5)  [06900FA7]
     Copy OK

Track  2

     Filename F:\torrents\Upload\Quietdrive - When All That's Left Is You [FLAC]\Quietdrive - 2006 - When All That's Left Is You\02 - Get Up.wav

     Peak level 99.9 %
     Track quality 100.0 %
     Test CRC 9F80720C
     Copy CRC 9F80720C
     Accurately ripped (confidence 5)  [C987336D]
     Copy OK

Track  3

     Filename F:\torrents\Upload\Quietdrive - When All That's Left Is You [FLAC]\Quietdrive - 2006 - When All That's Left Is You\03 - Take A Drink.wav

     Peak level 99.9 %
     Track quality 100.0 %
     Test CRC EA5DAD09
     Copy CRC EA5DAD09
     Accurately ripped (confidence 5)  [2FF0B1D2]
     Copy OK

Track  4

     Filename F:\torrents\Upload\Quietdrive - When All That's Left Is You [FLAC]\Quietdrive - 2006 - When All That's Left Is You\04 - Let Me Go In.wav

     Peak level 99.9 %
     Track quality 100.0 %
     Test CRC 221D69AC
     Copy CRC 221D69AC
     Accurately ripped (confidence 5)  [AC23F55D]
     Copy OK

Track  5

     Filename F:\torrents\Upload\Quietdrive - When All That's Left Is You [FLAC]\Quietdrive - 2006 - When All That's Left Is You\05 - Rush Together.wav

     Peak level 99.9 %
     Track quality 100.0 %
     Test CRC 272FBF4B
     Copy CRC 272FBF4B
     Accurately ripped (confidence 5)  [5493CD08]
     Copy OK

Track  6

     Filename F:\torrents\Upload\Quietdrive - When All That's Left Is You [FLAC]\Quietdrive - 2006 - When All That's Left Is You\06 - Maybe Misery.wav

     Peak level 99.9 %
     Track quality 100.0 %
     Test CRC 579FC002
     Copy CRC 579FC002
     Accurately ripped (confidence 5)  [1CEFBDAB]
     Copy OK

Track  7

     Filename F:\torrents\Upload\Quietdrive - When All That's Left Is You [FLAC]\Quietdrive - 2006 - When All That's Left Is You\07 - I Lie Awake.wav

     Peak level 99.9 %
     Track quality 100.0 %
     Test CRC 07BB56FC
     Copy CRC 07BB56FC
     Accurately ripped (confidence 5)  [F554A289]
     Copy OK

Track  8

     Filename F:\torrents\Upload\Quietdrive - When All That's Left Is You [FLAC]\Quietdrive - 2006 - When All That's Left Is You\08 - The Season.wav

     Peak level 99.9 %
     Track quality 100.0 %
     Test CRC 2706A07D
     Copy CRC 2706A07D
     Accurately ripped (confidence 5)  [5B110FE1]
     Copy OK

Track  9

     Filename F:\torrents\Upload\Quietdrive - When All That's Left Is You [FLAC]\Quietdrive - 2006 - When All That's Left Is You\09 - Time After Time.wav

     Peak level 99.9 %
     Track quality 100.0 %
     Test CRC 58B2A8DF
     Copy CRC 58B2A8DF
     Accurately ripped (confidence 5)  [1685F041]
     Copy OK

Track 10

     Filename F:\torrents\Upload\Quietdrive - When All That's Left Is You [FLAC]\Quietdrive - 2006 - When All That's Left Is You\10 - Both Ways.wav

     Pre-gap length  0:00:02.29

     Peak level 99.9 %
     Track quality 100.0 %
     Test CRC A0D24A78
     Copy CRC A0D24A78
     Accurately ripped (confidence 5)  [04E59B8C]
     Copy OK

All tracks accurately ripped

No errors occurred

End of status report
Код:
Код:
-----------------------

DON'T MODIFY THIS FILE

-----------------------

PERFORMER: auCDtect Task Manager, ver. 1.6.0 RC1 build 1.6.0.1
Copyright (c) 2008-2010 y-soft. All rights reserved
http:/y-soft.org

ANALYZER: auCDtect: CD records authenticity detector, version 0.8.2
Copyright (c) 2004 Oleg Berngardt. All rights reserved.
Copyright (c) 2004 Alexander Djourik. All rights reserved.

FILE: Quietdrive - 2006 - When All That's Left Is You - 10 - Both Ways.flac
  Size: 28074169 Hash: 25EB02C2BAC921F98482E6BEDAAFB940 Accuracy: -m0
  Conclusion: CDDA 100%
  Signature: B2913A05AA94DE3EDCF2AF0DC78B578CBF446578
FILE: Quietdrive - 2006 - When All That's Left Is You - 09 - Time After Time.flac
  Size: 24758031 Hash: 0C6BAAA508BE89931C12AC2DB2878AD4 Accuracy: -m0
  Conclusion: CDDA 100%
  Signature: 20BC2071E7320E79E7B7AA7FFD8E6B765BAE4537
FILE: Quietdrive - 2006 - When All That's Left Is You - 08 - The Season.flac
  Size: 22915790 Hash: D889E0AE703E849C08FDB26C08420CB7 Accuracy: -m0
  Conclusion: CDDA 100%
  Signature: 3A11A22A0375AF7C725765B5180CE00B8EFFD840
FILE: Quietdrive - 2006 - When All That's Left Is You - 07 - I Lie Awake.flac
  Size: 24143101 Hash: C334400336BF0C6F2C3351F279ACBF11 Accuracy: -m0
  Conclusion: CDDA 100%
  Signature: 368A614F4728898332DFDFFD42F40F7CD77E4AAB
FILE: Quietdrive - 2006 - When All That's Left Is You - 06 - Maybe Misery.flac
  Size: 23560195 Hash: E695CFB52C3EA88180CFC2894402C709 Accuracy: -m0
  Conclusion: CDDA 100%
  Signature: 79D712A55CBB5862273AB9AB6FC88D2EF1139DF7
FILE: Quietdrive - 2006 - When All That's Left Is You - 05 - Rush Together.flac
  Size: 25635118 Hash: 71E89B65B108A511CE3B426A328CF313 Accuracy: -m0
  Conclusion: MPEG 95%
  Signature: 63144620FB5E1EB108C66D322AAC9D15854200B6
FILE: Quietdrive - 2006 - When All That's Left Is You - 04 - Let Me Go In.flac
  Size: 21110738 Hash: 54EDF522C180FA4EE04FAC647F814442 Accuracy: -m0
  Conclusion: CDDA 100%
  Signature: 91CB5A1FD0276F924383DC89F0CB5F5C7E2098AB
FILE: Quietdrive - 2006 - When All That's Left Is You - 03 - Take A Drink.flac
  Size: 21031407 Hash: C92E38B085F3406E8AED5AB10F1220AA Accuracy: -m0
  Conclusion: CDDA 100%
  Signature: 505207B857857F8876A34C495588532EC2D10188
FILE: Quietdrive - 2006 - When All That's Left Is You - 02 - Get Up.flac
  Size: 28349310 Hash: D33E49E32F8C05564223D3672167FA80 Accuracy: -m0
  Conclusion: CDDA 99%
  Signature: C306A4A0C41FF621614344AAF86363A7C2819211
FILE: Quietdrive - 2006 - When All That's Left Is You - 01 - Rise From The Ashes.flac
  Size: 24664313 Hash: 4CA1D64C42445F2CA402666C5DE80090 Accuracy: -m0
  Conclusion: CDDA 100%
  Signature: 15DED62A49CB4EAD3D9683CAAAA42C00ED6F8AEE
#77701. Believe Me (03:31)
02. Deliverance (03:22)
03. Daddy's Little Girl (03:44)
04. Motivation (02:50)
05. Birthday (03:12)
06. Afterall (02:59)
07. Pretend (03:09)
08. Hollywood (02:56)
09. Kissing Your Lips (02:58)
10. Take Me Now (04:00)
11. Promise Me (03:12)
12. Secret (04:18)
13. Starbright (04:29)
Код:
Код:
Exact Audio Copy V0.99 prebeta 4 from 23. January 2008

EAC extraction logfile from 6. April 2009, 14:41

Quietdrive / Deliverance

Used drive  : HL-DT-STDVDRW  GSA-S10N6   Adapter: 0  ID: 0

Read mode               : Secure
Utilize accurate stream : Yes
Defeat audio cache      : Yes
Make use of C2 pointers : No

Read offset correction                      : 667
Overread into Lead-In and Lead-Out          : No
Fill up missing offset samples with silence : Yes
Delete leading and trailing silent blocks   : No
Null samples used in CRC calculations       : Yes
Used interface                              : Installed external ASPI interface
Gap handling                                : Appended to previous track

Used output format              : User Defined Encoder
Selected bitrate                : 768 kBit/s
Quality                         : High
Add ID3 tag                     : No
Command line compressor         : C:\Program Files\Exact Audio Copy\FLAC\FLAC.EXE
Additional command line options : -8 -A tukey(0.25) -A gauss(0.1875) -b 4096 -V -T "artist=%a" -T "title=%t" -T "album=%g" -T "date=%y" -T "tracknumber=%n" -T "genre=%m" %s --sector-align

TOC of the extracted CD

     Track |   Start  |  Length  | Start sector | End sector
    ---------------------------------------------------------
        1  |  0:00.00 |  3:31.02 |         0    |    15826
        2  |  3:31.02 |  3:22.22 |     15827    |    30998
        3  |  6:53.24 |  3:44.23 |     30999    |    47821
        4  | 10:37.47 |  2:50.49 |     47822    |    60620
        5  | 13:28.21 |  3:12.20 |     60621    |    75040
        6  | 16:40.41 |  2:59.41 |     75041    |    88506
        7  | 19:40.07 |  3:09.42 |     88507    |   102723
        8  | 22:49.49 |  2:56.49 |    102724    |   115972
        9  | 25:46.23 |  2:58.49 |    115973    |   129371
       10  | 28:44.72 |  4:00.43 |    129372    |   147414
       11  | 32:45.40 |  3:12.44 |    147415    |   161858
       12  | 35:58.09 |  4:18.28 |    161859    |   181236
       13  | 40:16.37 |  4:29.12 |    181237    |   201423

Track  1

     Filename C:\FLACS\Quietdrive - Deliverance [FLAC]\01 Believe Me.wav

     Pre-gap length  0:00:02.00

     Peak level 98.8 %
     Track quality 100.0 %
     Test CRC 9E8F4D03
     Copy CRC 9E8F4D03
     Track not present in AccurateRip database
     Copy OK

Track  2

     Filename C:\FLACS\Quietdrive - Deliverance [FLAC]\02 Deliverance.wav

     Peak level 98.8 %
     Track quality 100.0 %
     Test CRC 44B1710D
     Copy CRC 44B1710D
     Track not present in AccurateRip database
     Copy OK

Track  3

     Filename C:\FLACS\Quietdrive - Deliverance [FLAC]\03 Daddy's Little Girl.wav

     Peak level 98.8 %
     Track quality 100.0 %
     Test CRC A0BFEFED
     Copy CRC A0BFEFED
     Track not present in AccurateRip database
     Copy OK

Track  4

     Filename C:\FLACS\Quietdrive - Deliverance [FLAC]\04 Motivation.wav

     Peak level 98.8 %
     Track quality 99.9 %
     Test CRC 7574C5C3
     Copy CRC 7574C5C3
     Track not present in AccurateRip database
     Copy OK

Track  5

     Filename C:\FLACS\Quietdrive - Deliverance [FLAC]\05 Birthday.wav

     Peak level 98.8 %
     Track quality 99.9 %
     Test CRC A857768D
     Copy CRC A857768D
     Track not present in AccurateRip database
     Copy OK

Track  6

     Filename C:\FLACS\Quietdrive - Deliverance [FLAC]\06 Afterall.wav

     Peak level 98.8 %
     Track quality 100.0 %
     Test CRC 8EDCF64E
     Copy CRC 8EDCF64E
     Track not present in AccurateRip database
     Copy OK

Track  7

     Filename C:\FLACS\Quietdrive - Deliverance [FLAC]\07 Pretend.wav

     Peak level 98.8 %
     Track quality 100.0 %
     Test CRC B76EC5DD
     Copy CRC B76EC5DD
     Track not present in AccurateRip database
     Copy OK

Track  8

     Filename C:\FLACS\Quietdrive - Deliverance [FLAC]\08 Hollywood.wav

     Peak level 98.8 %
     Track quality 99.9 %
     Test CRC 5FEE7A59
     Copy CRC 5FEE7A59
     Track not present in AccurateRip database
     Copy OK

Track  9

     Filename C:\FLACS\Quietdrive - Deliverance [FLAC]\09 Kissing Your Lips.wav

     Peak level 98.8 %
     Track quality 99.9 %
     Test CRC 91ECA598
     Copy CRC 91ECA598
     Track not present in AccurateRip database
     Copy OK

Track 10

     Filename C:\FLACS\Quietdrive - Deliverance [FLAC]\10 Take Me Now.wav

     Peak level 98.8 %
     Track quality 100.0 %
     Test CRC 76583D28
     Copy CRC 76583D28
     Track not present in AccurateRip database
     Copy OK

Track 11

     Filename C:\FLACS\Quietdrive - Deliverance [FLAC]\11 Promise Me.wav

     Peak level 98.8 %
     Track quality 99.9 %
     Test CRC 6010ABAB
     Copy CRC 6010ABAB
     Track not present in AccurateRip database
     Copy OK

Track 12

     Filename C:\FLACS\Quietdrive - Deliverance [FLAC]\12 Secret.wav

     Peak level 98.8 %
     Track quality 99.9 %
     Test CRC 28563623
     Copy CRC 28563623
     Track not present in AccurateRip database
     Copy OK

Track 13

     Filename C:\FLACS\Quietdrive - Deliverance [FLAC]\13 Starbright.wav

     Peak level 98.8 %
     Track quality 100.0 %
     Test CRC F3FE194F
     Copy CRC F3FE194F
     Track not present in AccurateRip database
     Copy OK

None of the tracks are present in the AccurateRip database

No errors occurred

End of status report
Код:
Код:
-----------------------

DON'T MODIFY THIS FILE

-----------------------

PERFORMER: auCDtect Task Manager, ver. 1.6.0 RC1 build 1.6.0.1
Copyright (c) 2008-2010 y-soft. All rights reserved
http:/y-soft.org

ANALYZER: auCDtect: CD records authenticity detector, version 0.8.2
Copyright (c) 2004 Oleg Berngardt. All rights reserved.
Copyright (c) 2004 Alexander Djourik. All rights reserved.

FILE: 13 - Starbright.flac
  Size: 28775847 Hash: CA5A238398ACF6D41C44B2B9C58AB943 Accuracy: -m0
  Conclusion: CDDA 100%
  Signature: F5637922A522BB31F33C529C92B1C43D94CBD883
FILE: 12 - Secret.flac
  Size: 33193457 Hash: 43AECFB3BE6F91BEF422E433C2748D17 Accuracy: -m0
  Conclusion: CDDA 100%
  Signature: B088973DF6110A25540AB80842CD8C00BF9483EA
FILE: 11 - Promise Me.flac
  Size: 25671026 Hash: 185E53784E2F187C40ABCA52303CAC7E Accuracy: -m0
  Conclusion: CDDA 100%
  Signature: 1671F19704B41DE7337CBBDED1EED3C7A562D372
FILE: 10 - Take Me Now.flac
  Size: 31264601 Hash: 4F9084CB56B54638FF7FDCE8DDD052F6 Accuracy: -m0
  Conclusion: CDDA 100%
  Signature: 9C272744DC03C9C94A904BD1FA83DBC18963EF3D
FILE: 09 - Kissing Your Lips.flac
  Size: 22611718 Hash: 5B32E6BDE70187E54C3F7C89B4602B9F Accuracy: -m0
  Conclusion: CDDA 100%
  Signature: 711C224E15E4D04D577E7DDB78BACAA9C308A353
FILE: 08 - Hollywood.flac
  Size: 24265804 Hash: DD89F885F1017E808C9E294BC8926605 Accuracy: -m0
  Conclusion: CDDA 100%
  Signature: 03359C93CA9475BCA9B4F93634BD9632EFE0A962
FILE: 07 - Pretend.flac
  Size: 25563136 Hash: F82F36371356688F514736B7D1177F7C Accuracy: -m0
  Conclusion: CDDA 100%
  Signature: 9B180EF67C89F9BBA6F37867DC845A76DE8EB62C
FILE: 06 - Afterall.flac
  Size: 23469972 Hash: 33BEC6B7206089CEF58DEB2A96E7B99F Accuracy: -m0
  Conclusion: CDDA 100%
  Signature: D9C4C01412ADB98F96F1373A274A3AA89CC851FB
FILE: 05 - Birthday.flac
  Size: 25868281 Hash: EAB8219835ED12BBB39CFAE90EC6ED2B Accuracy: -m0
  Conclusion: CDDA 100%
  Signature: FFF49BA917C52A18327B15E7ABC31721BBACC1D3
FILE: 04 - Motivation.flac
  Size: 21707559 Hash: C9DE662CBC48147C405F99E186D9727F Accuracy: -m0
  Conclusion: CDDA 100%
  Signature: F11AABC26877C0438CD07CD7318114A6B0B000DC
FILE: 03 - Daddy's Little Girl.flac
  Size: 28787732 Hash: 3B165A1A7905C49EB4D2CB25CD2D8319 Accuracy: -m0
  Conclusion: CDDA 100%
  Signature: C6786AD25E265C709F38AB77855CBD334B424CCE
FILE: 02 - Deliverance.flac
  Size: 26076251 Hash: 903BC8BC32E7413B89265844E07AB10D Accuracy: -m0
  Conclusion: CDDA 100%
  Signature: 76DB6C831DE072A9B72A5BED051A29BC6D9E22E0
FILE: 01 - Believe Me.flac
  Size: 26499331 Hash: 140B709ACF0669EC9BA6C98174F7499A Accuracy: -m0
  Conclusion: CDDA 100%
  Signature: FC29E4C318634BE6CE478345EABCB0FE432D457B
#77701. American Jeans (03:02)
02. Way Out (03:22)
03. Always (03:35)
04. Days Go By (03:12)
05. C'est la Vie (03:23)
06. Body out of Bed (02:56)
07. Fading Light (03:35)
08. Birthday (02:49)
09. The Good Book (02:48)
10. It Says a Lot (02:27)
11. Feel Alive (03:49)
12. Until The End (03:55)
Код:
Код:
Exact Audio Copy V1.0 beta 2 from 29. April 2011

EAC extraction logfile from 9. August 2011, 3:02

Quietdrive / Quietdrive

Used drive  : TEAC    DV-W28S-V   Adapter: 0  ID: 1

Read mode               : Secure
Utilize accurate stream : Yes
Defeat audio cache      : Yes
Make use of C2 pointers : No

Read offset correction                      : 96
Overread into Lead-In and Lead-Out          : No
Fill up missing offset samples with silence : Yes
Delete leading and trailing silent blocks   : No
Null samples used in CRC calculations       : No
Used interface                              : Native Win32 interface for Win NT & 2000
Gap handling                                : Appended to previous track

Used output format              : User Defined Encoder
Selected bitrate                : 896 kBit/s
Quality                         : High
Add ID3 tag                     : No
Command line compressor         : C:\Program Files (x86)\Exact Audio Copy\FLAC\FLAC.EXE
Additional command line options : -8 -V -T "ARTIST=%artist%" -T "TITLE=%title%" -T "ALBUM=%albumtitle%" -T "DATE=%year%" -T "TRACKNUMBER=%tracknr%" -T "GENRE=%genre%" -T "PERFORMER=%albuminterpret%" -T "COMPOSER=%composer%" %haslyrics%--tag-from-file=LYRICS

TOC of the extracted CD

     Track |   Start  |  Length  | Start sector | End sector
    ---------------------------------------------------------
        1  |  0:00.00 |  3:02.22 |         0    |    13671
        2  |  3:02.22 |  3:22.10 |     13672    |    28831
        3  |  6:24.32 |  3:35.18 |     28832    |    44974
        4  |  9:59.50 |  3:12.35 |     44975    |    59409
        5  | 13:12.10 |  3:23.70 |     59410    |    74704
        6  | 16:36.05 |  2:56.32 |     74705    |    87936
        7  | 19:32.37 |  3:35.38 |     87937    |   104099
        8  | 23:08.00 |  2:49.35 |    104100    |   116809
        9  | 25:57.35 |  2:48.55 |    116810    |   129464
       10  | 28:46.15 |  2:27.28 |    129465    |   140517
       11  | 31:13.43 |  3:49.46 |    140518    |   157738
       12  | 35:03.14 |  3:55.15 |    157739    |   175378

Track  1

     Filename C:\What.CD\Quietdrive\Quietdrive (2010) [FLAC]\01 - American Jeans.wav

     Pre-gap length  0:00:02.00

     Peak level 100.0 %
     Extraction speed 1.8 X
     Track quality 100.0 %
     Test CRC E1F2087A
     Copy CRC E1F2087A
     Accurately ripped (confidence 1)  [63BEE061]  (AR v2)
     Copy OK

Track  2

     Filename C:\What.CD\Quietdrive\Quietdrive (2010) [FLAC]\02 - Way Out.wav

     Peak level 100.0 %
     Extraction speed 2.1 X
     Track quality 100.0 %
     Test CRC E2051E75
     Copy CRC E2051E75
     Accurately ripped (confidence 1)  [763C9FEB]  (AR v2)
     Copy OK

Track  3

     Filename C:\What.CD\Quietdrive\Quietdrive (2010) [FLAC]\03 - Always.wav

     Peak level 100.0 %
     Extraction speed 2.3 X
     Track quality 100.0 %
     Test CRC 4FE46775
     Copy CRC 4FE46775
     Accurately ripped (confidence 1)  [AE2B64B0]  (AR v2)
     Copy OK

Track  4

     Filename C:\What.CD\Quietdrive\Quietdrive (2010) [FLAC]\04 - Days Go By.wav

     Peak level 100.0 %
     Extraction speed 2.4 X
     Track quality 100.0 %
     Test CRC 19EBE544
     Copy CRC 19EBE544
     Accurately ripped (confidence 1)  [3E08621A]  (AR v2)
     Copy OK

Track  5

     Filename C:\What.CD\Quietdrive\Quietdrive (2010) [FLAC]\05 - C'est la Vie.wav

     Peak level 99.9 %
     Extraction speed 2.5 X
     Track quality 100.0 %
     Test CRC 56A4A88C
     Copy CRC 56A4A88C
     Accurately ripped (confidence 1)  [536EF8E8]  (AR v2)
     Copy OK

Track  6

     Filename C:\What.CD\Quietdrive\Quietdrive (2010) [FLAC]\06 - Body out of Bed.wav

     Peak level 99.9 %
     Extraction speed 2.6 X
     Track quality 100.0 %
     Test CRC 02E5721E
     Copy CRC 02E5721E
     Accurately ripped (confidence 1)  [EEF3D64C]  (AR v2)
     Copy OK

Track  7

     Filename C:\What.CD\Quietdrive\Quietdrive (2010) [FLAC]\07 - Fading Light.wav

     Peak level 99.9 %
     Extraction speed 2.8 X
     Track quality 100.0 %
     Test CRC 73048B3E
     Copy CRC 73048B3E
     Accurately ripped (confidence 1)  [584E4F1F]  (AR v2)
     Copy OK

Track  8

     Filename C:\What.CD\Quietdrive\Quietdrive (2010) [FLAC]\08 - Birthday.wav

     Peak level 99.9 %
     Extraction speed 2.8 X
     Track quality 100.0 %
     Test CRC F558EA69
     Copy CRC F558EA69
     Accurately ripped (confidence 1)  [244F4BA3]  (AR v2)
     Copy OK

Track  9

     Filename C:\What.CD\Quietdrive\Quietdrive (2010) [FLAC]\09 - The Good Book.wav

     Peak level 99.9 %
     Extraction speed 2.9 X
     Track quality 100.0 %
     Test CRC 2B843291
     Copy CRC 2B843291
     Accurately ripped (confidence 1)  [02EF651C]  (AR v2)
     Copy OK

Track 10

     Filename C:\What.CD\Quietdrive\Quietdrive (2010) [FLAC]\10 - It Says a Lot.wav

     Peak level 99.9 %
     Extraction speed 2.1 X
     Track quality 99.9 %
     Test CRC 5EB89F09
     Copy CRC 5EB89F09
     Accurately ripped (confidence 1)  [5F479DC3]  (AR v2)
     Copy OK

Track 11

     Filename C:\What.CD\Quietdrive\Quietdrive (2010) [FLAC]\11 - Feel Alive.wav

     Peak level 99.9 %
     Extraction speed 3.2 X
     Track quality 100.0 %
     Test CRC B345721A
     Copy CRC B345721A
     Accurately ripped (confidence 1)  [A0431618]  (AR v2)
     Copy OK

Track 12

     Filename C:\What.CD\Quietdrive\Quietdrive (2010) [FLAC]\12 - Until The End.wav

     Peak level 99.9 %
     Extraction speed 3.3 X
     Track quality 100.0 %
     Test CRC 123ED3B1
     Copy CRC 123ED3B1
     Accurately ripped (confidence 1)  [BE473D1F]  (AR v2)
     Copy OK

All tracks accurately ripped

No errors occurred

End of status report

---- CUETools DB Plugin V2.1.2

[CTDB TOCID: 96nJSjQl3etdd0B3KYovGIMbR6A-] disk not present in database, Submit result: 96nJSjQl3etdd0B3KYovGIMbR6A- has been uploaded

==== Log checksum B66D135E6E3D2AB3067AE992C377EA45F654C8578F9E4FE62BF8E034842DC218 ====
Код:
Код:
-----------------------

DON'T MODIFY THIS FILE

-----------------------

PERFORMER: auCDtect Task Manager, ver. 1.6.0 RC1 build 1.6.0.1
Copyright (c) 2008-2010 y-soft. All rights reserved
http:/y-soft.org

ANALYZER: auCDtect: CD records authenticity detector, version 0.8.2
Copyright (c) 2004 Oleg Berngardt. All rights reserved.
Copyright (c) 2004 Alexander Djourik. All rights reserved.

FILE: 12 - Until The End.flac
  Size: 29158057 Hash: 9A70E329C274BE0C1C49F5A1E0BB282E Accuracy: -m0
  Conclusion: CDDA 100%
  Signature: 7638914B626FB912712191DA43D9BB79A8C7076A
FILE: 11 - Feel Alive.flac
  Size: 29854495 Hash: C833422E8FD01574B0941D7187F97994 Accuracy: -m0
  Conclusion: CDDA 100%
  Signature: DD497A5186CFDA713AE2CCD1B860886A33B124E9
FILE: 10 - It Says a Lot.flac
  Size: 19976403 Hash: 7719A6A66DA292C1FC2C5CC9755932F9 Accuracy: -m0
  Conclusion: CDDA 99%
  Signature: EA5EF64346513188074D015722C3BF78B30D4629
FILE: 09 - The Good Book.flac
  Size: 19849101 Hash: 0FA1D946E308244909A39F4F70695A5D Accuracy: -m0
  Conclusion: CDDA 100%
  Signature: 013520B4FB91E8551FDCCD49F5AAC4844E9A9D81
FILE: 08 - Birthday.flac
  Size: 22976137 Hash: 5CFB33306859EEC4A01A39614B847A2E Accuracy: -m0
  Conclusion: CDDA 100%
  Signature: 89D0B98D96B456278ADB8B28E26D6D81364FD5F6
FILE: 07 - Fading Light.flac
  Size: 28920012 Hash: 5D65D23AFA3CFEEDA82CD0071E47CDE1 Accuracy: -m0
  Conclusion: CDDA 100%
  Signature: F51391B61A79EEBEF18ED9532A33C07DF1EC7F35
FILE: 06 - Body out of Bed.flac
  Size: 19465565 Hash: 5C640A9F82396B5D0C6BE7D2827629BA Accuracy: -m0
  Conclusion: CDDA 100%
  Signature: E154D9B828088B6C87ABBC2390FC0D096920707B
FILE: 05 - C'est la Vie.flac
  Size: 27344160 Hash: 64869830C88C74E0306224736AD3F77C Accuracy: -m0
  Conclusion: CDDA 100%
  Signature: EC7B27CDB952E22842511E57E0CD7A506F7DE804
FILE: 04 - Days Go By.flac
  Size: 25848095 Hash: EB0DD3B9338A547E797439701BFE95C6 Accuracy: -m0
  Conclusion: CDDA 100%
  Signature: 11A3B9CACF2560C31A0A2F420F6C0BBFDC8EF6AD
FILE: 03 - Always.flac
  Size: 28463345 Hash: 25FD815B3F0A1155DFEA637848D2BA85 Accuracy: -m0
  Conclusion: CDDA 100%
  Signature: C1541887A22718A92EDFE80B8FC9184B43708B76
FILE: 02 - Way Out.flac
  Size: 26565303 Hash: 49CB60E806C03C848EFE3B8E9F61A025 Accuracy: -m0
  Conclusion: CDDA 100%
  Signature: B59B039B617A004508A6106F852D071668DBBC87
FILE: 01 - American Jeans.flac
  Size: 23691796 Hash: 3150FD824E7576BC803A5056ADED645E Accuracy: -m0
  Conclusion: CDDA 100%
  Signature: 04F9B2CAAA4DC0E5198C09972419E1AD565B0BA4
#77701. This is Love (03:58)
02. Lie to Me (03:39)
03. Sleazy (03:26)
04. Crazy (03:34)
05. Mary Jane (03:16)
06. All This Time (02:51)
07. Every Day (03:33)
08. Picture of Me (03:55)
09. There's a Light On (02:09)
10. Up or Down (03:36)
11. Avalanche (04:03)
Код:
Код:
Exact Audio Copy V1.0 beta 3 from 29. August 2011

EAC extraction logfile from 3. May 2012, 0:31

Quietdrive / Up or Down

Used drive  : Optiarc DVD RW AD-7740H   Adapter: 0  ID: 1

Read mode               : Secure
Utilize accurate stream : Yes
Defeat audio cache      : Yes
Make use of C2 pointers : No

Read offset correction                      : 48
Overread into Lead-In and Lead-Out          : No
Fill up missing offset samples with silence : Yes
Delete leading and trailing silent blocks   : No
Null samples used in CRC calculations       : Yes
Used interface                              : Native Win32 interface for Win NT & 2000
Gap handling                                : Appended to previous track

Used output format              : User Defined Encoder
Selected bitrate                : 1024 kBit/s
Quality                         : High
Add ID3 tag                     : No
Command line compressor         : C:\Program Files (x86)\Exact Audio Copy\Flac\flac.exe
Additional command line options : -8 -V -T "ARTIST=%artist%" -T "TITLE=%title%" -T "ALBUM=%albumtitle%" -T "DATE=%year%" -T "TRACKNUMBER=%tracknr%" -T "GENRE=%genre%" -T "PERFORMER=%albuminterpret%" -T "COMPOSER=%composer%" %haslyrics%--tag-from-file=LYRICS="%lyricsfile%"%haslyrics% -T "ALBUMARTIST=%albumartist%" -T "DISCNUMBER=%cdnumber%" -T "TOTALDISCS=%totalcds%" -T "TOTALTRACKS=%numtracks%" -T "COMMENT=%comment%" %source% -o %dest%

TOC of the extracted CD

     Track |   Start  |  Length  | Start sector | End sector
    ---------------------------------------------------------
        1  |  0:00.00 |  3:58.39 |         0    |    17888
        2  |  3:58.39 |  3:39.35 |     17889    |    34348
        3  |  7:37.74 |  3:26.61 |     34349    |    49859
        4  | 11:04.60 |  3:34.50 |     49860    |    65959
        5  | 14:39.35 |  3:16.00 |     65960    |    80659
        6  | 17:55.35 |  2:51.26 |     80660    |    93510
        7  | 20:46.61 |  3:33.51 |     93511    |   109536
        8  | 24:20.37 |  3:55.04 |    109537    |   127165
        9  | 28:15.41 |  2:09.05 |    127166    |   136845
       10  | 30:24.46 |  3:36.00 |    136846    |   153045
       11  | 34:00.46 |  4:03.32 |    153046    |   171302

Track  1

     Filename C:\Users\STM\Desktop\Quietdrive - Up or Down [CD] 2012 (Independant Label)\01 This is Love.wav

     Pre-gap length  0:00:02.00

     Peak level 95.5 %
     Extraction speed 1.1 X
     Track quality 100.0 %
     Test CRC 8D6A67B7
     Copy CRC 8D6A67B7
     Track not present in AccurateRip database
     Copy OK

Track  2

     Filename C:\Users\STM\Desktop\Quietdrive - Up or Down [CD] 2012 (Independant Label)\02 Lie to Me.wav

     Peak level 95.5 %
     Extraction speed 1.1 X
     Track quality 99.9 %
     Test CRC A34C8328
     Copy CRC A34C8328
     Track not present in AccurateRip database
     Copy OK

Track  3

     Filename C:\Users\STM\Desktop\Quietdrive - Up or Down [CD] 2012 (Independant Label)\03 Sleazy.wav

     Peak level 95.5 %
     Extraction speed 1.1 X
     Track quality 99.9 %
     Test CRC 575591CD
     Copy CRC 575591CD
     Track not present in AccurateRip database
     Copy OK

Track  4

     Filename C:\Users\STM\Desktop\Quietdrive - Up or Down [CD] 2012 (Independant Label)\04 Crazy.wav

     Peak level 94.3 %
     Extraction speed 1.4 X
     Track quality 100.0 %
     Test CRC 184DBFF9
     Copy CRC 184DBFF9
     Track not present in AccurateRip database
     Copy OK

Track  5

     Filename C:\Users\STM\Desktop\Quietdrive - Up or Down [CD] 2012 (Independant Label)\05 Mary Jane.wav

     Peak level 95.5 %
     Extraction speed 1.5 X
     Track quality 100.0 %
     Test CRC E5B3EC28
     Copy CRC E5B3EC28
     Track not present in AccurateRip database
     Copy OK

Track  6

     Filename C:\Users\STM\Desktop\Quietdrive - Up or Down [CD] 2012 (Independant Label)\06 All This Time.wav

     Peak level 95.5 %
     Extraction speed 1.4 X
     Track quality 100.0 %
     Test CRC DFA61EDD
     Copy CRC DFA61EDD
     Track not present in AccurateRip database
     Copy OK

Track  7

     Filename C:\Users\STM\Desktop\Quietdrive - Up or Down [CD] 2012 (Independant Label)\07 Every Day.wav

     Peak level 95.5 %
     Extraction speed 1.7 X
     Track quality 100.0 %
     Test CRC A1C27BB2
     Copy CRC A1C27BB2
     Track not present in AccurateRip database
     Copy OK

Track  8

     Filename C:\Users\STM\Desktop\Quietdrive - Up or Down [CD] 2012 (Independant Label)\08 Picture of Me.wav

     Peak level 95.5 %
     Extraction speed 1.6 X
     Track quality 99.9 %
     Test CRC 66C87290
     Copy CRC 66C87290
     Track not present in AccurateRip database
     Copy OK

Track  9

     Filename C:\Users\STM\Desktop\Quietdrive - Up or Down [CD] 2012 (Independant Label)\09 There's a Light On.wav

     Peak level 91.7 %
     Extraction speed 1.6 X
     Track quality 100.0 %
     Test CRC CE784845
     Copy CRC CE784845
     Track not present in AccurateRip database
     Copy OK

Track 10

     Filename C:\Users\STM\Desktop\Quietdrive - Up or Down [CD] 2012 (Independant Label)\10 Up or Down.wav

     Peak level 95.5 %
     Extraction speed 1.9 X
     Track quality 100.0 %
     Test CRC 68422092
     Copy CRC 68422092
     Track not present in AccurateRip database
     Copy OK

Track 11

     Filename C:\Users\STM\Desktop\Quietdrive - Up or Down [CD] 2012 (Independant Label)\11 Avalanche.wav

     Peak level 95.4 %
     Extraction speed 2.0 X
     Track quality 100.0 %
     Test CRC 1124F6AA
     Copy CRC 1124F6AA
     Track not present in AccurateRip database
     Copy OK

None of the tracks are present in the AccurateRip database

No errors occurred

End of status report

---- CUETools DB Plugin V2.1.3

[CTDB TOCID: 4shkROiDdWCAoqDri7uo7Rajc1Q-] found, Submit result: already submitted
[2659f4a5] (1/1) Accurately ripped

==== Log checksum 28303DC05339393D1F6D8D85DAEDFFA9FE53C5ABC40891C9335ADD53005271B3 ====
Код:
Код:
-----------------------

DON'T MODIFY THIS FILE

-----------------------

PERFORMER: auCDtect Task Manager, ver. 1.6.0 RC1 build 1.6.0.1
Copyright (c) 2008-2010 y-soft. All rights reserved
http:/y-soft.org

ANALYZER: auCDtect: CD records authenticity detector, version 0.8.2
Copyright (c) 2004 Oleg Berngardt. All rights reserved.
Copyright (c) 2004 Alexander Djourik. All rights reserved.

FILE: 11 Avalanche.flac
  Size: 29759494 Hash: C7571B4F51B3A3A1D30A19C7C221DB4C Accuracy: -m0
  Conclusion: CDDA 100%
  Signature: 871508E8C876521075EFC583A319A8565081479D
FILE: 10 Up or Down.flac
  Size: 26019194 Hash: 9F49C29E93F17C86706A485300BF56AB Accuracy: -m0
  Conclusion: CDDA 100%
  Signature: BCA3A69629E8DABAA06077B011A0440F77E74CC1
FILE: 09 There's a Light On.flac
  Size: 14748989 Hash: 44ED7806180DDB883629BCA93DE870C6 Accuracy: -m0
  Conclusion: CDDA 100%
  Signature: 4A41685469B018960435E1C5F7A22A4F41B17DF7
FILE: 08 Picture of Me.flac
  Size: 29989233 Hash: F24CE62442CFF2ACDDE1BBD215F87C1E Accuracy: -m0
  Conclusion: CDDA 100%
  Signature: 61751A4A21936E047044701A7076EACEFEE29B76
FILE: 07 Every Day.flac
  Size: 29030280 Hash: B0B081C68EADC69B323724997C9FDA4D Accuracy: -m0
  Conclusion: CDDA 100%
  Signature: 50B652DAB1FF6D568F10A28C59C0433076F0D33F
FILE: 06 All This Time.flac
  Size: 22289959 Hash: 2B5DE39EC74E8149DD18EDE0F8303D67 Accuracy: -m0
  Conclusion: CDDA 100%
  Signature: 693B9CA6466E0C252778FE3C146B6BBC4E2EEC89
FILE: 05 Mary Jane.flac
  Size: 25161645 Hash: D45C2CC837B626987EAD703A4C98784A Accuracy: -m0
  Conclusion: CDDA 100%
  Signature: DF2D7914057DC8CDB34055D33E45A19D85F03AFE
FILE: 04 Crazy.flac
  Size: 27584420 Hash: 2DB0753B7C4206EDBEF37EA4C5827D5F Accuracy: -m0
  Conclusion: CDDA 100%
  Signature: 9960066F01D21371A1BCC1974AB83386EB14633C
FILE: 03 Sleazy.flac
  Size: 27505399 Hash: 8920F7B3565FD31D79DB4CC15C6378BE Accuracy: -m0
  Conclusion: CDDA 100%
  Signature: E8375D1B13F4F12576A78F301A9C33F00203F3BF
FILE: 02 Lie to Me.flac
  Size: 28671115 Hash: 02C4AFC1727DAD4AE0D6B5488CB11AA3 Accuracy: -m0
  Conclusion: CDDA 100%
  Signature: D8C299FB20DF5B3ED29CFCC8B0100E8931C2ED3D
FILE: 01 This is Love.flac
  Size: 31867912 Hash: 7DFC279C5BF27E0F66545416B650F2F1 Accuracy: -m0
  Conclusion: CDDA 100%
  Signature: F69DDCA4264CA83C9F3B92D793A72A1C4D6EC5F7
#77701. Irreversible (03:02)
02. Everyone And Everything (03:23)
03. Ransom Diaries (03:45)
04. Handsome Devil's Benediction (04:11)
Код:
Код:
-----------------------

DON'T MODIFY THIS FILE

-----------------------

PERFORMER: auCDtect Task Manager, ver. 1.6.0 RC1 build 1.6.0.1
Copyright (c) 2008-2010 y-soft. All rights reserved
http:/y-soft.org

ANALYZER: auCDtect: CD records authenticity detector, version 0.8.2
Copyright (c) 2004 Oleg Berngardt. All rights reserved.
Copyright (c) 2004 Alexander Djourik. All rights reserved.

FILE: Quietdrive - 2003 - Quietdrive EP - 04 - Handsome Devil's Benediction.flac
  Size: 29786795 Hash: 82818D192AFC6F19500148E73D7C9207 Accuracy: -m0
  Conclusion: CDDA 100%
  Signature: 3F6EBD5D264B2627189A6FF5D5F19D8F56A1DE30
FILE: Quietdrive - 2003 - Quietdrive EP - 03 - Ransom Diaries.flac
  Size: 27284004 Hash: 761AEDE97394913300A984B813ADB1BE Accuracy: -m0
  Conclusion: CDDA 100%
  Signature: CF8BA72F95342EF0415E058C38E52AE2CE42FE6C
FILE: Quietdrive - 2003 - Quietdrive EP - 02 - Everyone And Everything.flac
  Size: 25549156 Hash: B54EF61C602424169CC32E1B06EC0602 Accuracy: -m0
  Conclusion: CDDA 100%
  Signature: 7E839E1EDDE119BA866C01089CDB9011D1F43843
FILE: Quietdrive - 2003 - Quietdrive EP - 01 - Irreversible.flac
  Size: 23215866 Hash: FABB16B6FEC0DA0A4592A98B63AC90DB Accuracy: -m0
  Conclusion: CDDA 100%
  Signature: 156AE71F74C35103EFF959F4CD838F19799DC226
#77701. Take A Drink (02:45)
02. Rise From The Ashes (02:59)
03. Maybe Misery (02:58)
Код:
Код:
-----------------------

DON'T MODIFY THIS FILE

-----------------------

PERFORMER: auCDtect Task Manager, ver. 1.6.0 RC1 build 1.6.0.1
Copyright (c) 2008-2010 y-soft. All rights reserved
http:/y-soft.org

ANALYZER: auCDtect: CD records authenticity detector, version 0.8.2
Copyright (c) 2004 Oleg Berngardt. All rights reserved.
Copyright (c) 2004 Alexander Djourik. All rights reserved.

FILE: Quietdrive - 2005 - Fall From The Ceiling EP - 03 - Maybe Misery.flac
  Size: 23162111 Hash: D141051FA78B39553EA4C0A432727477 Accuracy: -m0
  Conclusion: CDDA 99%
  Signature: DFA915F1F8BF1AEA2BFB345AB6B492859674F6C5
FILE: Quietdrive - 2005 - Fall From The Ceiling EP - 02 - Rise From The Ashes.flac
  Size: 23829059 Hash: 6E30A5E9E26A66843B9442251F297701 Accuracy: -m0
  Conclusion: CDDA 100%
  Signature: 03E9BB5C8E1B620E52294AF440EBB1D8232CA1AC
FILE: Quietdrive - 2005 - Fall From The Ceiling EP - 01 - Take A Drink.flac
  Size: 20666668 Hash: 7FD110775114C86D569F1C3B6E0A3BB4 Accuracy: -m0
  Conclusion: CDDA 100%
  Signature: FE888DCD84F8650A43A8DBFCDC2F1778346D748F
Правила, инструкции, FAQ!!!
Торрент  Добавлен [16 мар 2014, 00:47] Скачать торрент Магнет ссылка
Скачать торрент
[ Размер 33.74 КБ / Просмотров 34 ]

Статус  
 
Размер  1.27 ГБ
Приватный: Нет (DHT включён)
.torrent скачан  0
 


     Отправить личное сообщение
   
Страница 1 из 1
Показать сообщения за:  Поле сортировки  
Начать новую тему Ответить на тему


Сейчас этот форум просматривают: нет зарегистрированных пользователей и гости: 0


Вы не можете начинать темы
Вы не можете отвечать на сообщения
Вы не можете редактировать свои сообщения
Вы не можете удалять свои сообщения
Вы не можете добавлять вложения

Перейти:  
cron