Начать новую тему Ответить на тему
Статистика раздачи
Размер: 3.45 ГБ | Добавлен: 16 мар 2014, 00:04 | Скачали: 2
Сидеров: 11  [0 байт/сек]    Личеров: 0  [0 байт/сек]
Пред. тема | След. тема 

Автор
Сообщение

СообщениеДобавлено: 16 мар 2014, 00:04 

Ответить с цитатой 

Queen - 14 Студийных альбомов (1973 - 1991) /1984 - 1991, 1-st Press EMI|Toshiba (Japan)/

Лейбл: EMI|Toshiba (Japan)
Год: 1973 - 1991 (1984 - 1991)
Жанр: Classic Rock
Продолжительность: 10:01:43

Кодек: FLAC
Битрейт: Lossless
Среди поклонников творчества Queen эта серия CD считается наиболее удачным и редким изданием.
Десять первых дисков (1973 - 1982) были отпечатаны в 1987-м году, остальные четыре (1984 - 1991) выходили в год выпуска альбомов.
Все диски записаны без, так часто применяемой сейчас, компрессии.
#777Каталог: CP32-5376

Трек лист:
01. Keep Yourself Alive
02. Doing All Right
03. Great King Rat
04. My Fairy King
05. Liar
06. The Night Comes Down
07. Modern Times Rock 'n' Roll
08. Son & Daughter
09. Jesus
10. Seven Seas Of Rhye

Продолжительность: 00:38:50
Код:
Код:
Exact Audio Copy V0.99 prebeta 5 from 4. May 2009

Отчёт EAC об извлечении, выполненном 26. июня 2011, 17:26

Queen / Queen I

Дисковод: ASUS    SDRW-08D2S-U   Adapter: 2  ID: 0

Режим чтения                 : Достоверность
Использование точного потока : Да
Отключение кэша аудио        : Да
Использование указателей C2  : Нет

Коррекция смещения при чтении                     : 103
Способность читать области Lead-in и Lead-out     : Нет
Заполнение пропущенных сэмплов тишиной            : Да
Удаление блоков с тишиной в начале и конце        : Нет
При вычислениях CRC использовались нулевые сэмплы : Да
Интерфейс                                         : Встроенный Win32-интерфейс для Win NT/2000

Выходной формат          : Пользовательский кодировщик
Выбранный битрейт        : 768 kBit/s
Качество                 : Высокий
Добавление ID3-тэга      : Нет
Утилита сжатия           : C:\Program Files\Exact Audio Copy\FLAC\FLAC.EXE
Дополнительные параметры : -8 -V %s

TOC извлечённого CD

     Трек |   Старт  | Длительность | Начальный сектор | Конечный сектор
    ---------------------------------------------------------------------
       1  |  0:00.32 |    3:47.25   |          32      |      17081
       2  |  3:47.57 |    4:09.73   |       17082      |      35829
       3  |  7:57.55 |    5:42.60   |       35830      |      61539
       4  | 13:40.40 |    4:08.27   |       61540      |      80166
       5  | 17:48.67 |    6:25.65   |       80167      |     109106
       6  | 24:14.57 |    4:23.13   |      109107      |     128844
       7  | 28:37.70 |    1:48.30   |      128845      |     136974
       8  | 30:26.25 |    3:23.27   |      136975      |     152226
       9  | 33:49.52 |    3:44.30   |      152227      |     169056
      10  | 37:34.07 |    1:15.33   |      169057      |     174714

Характеристики диапазона извлечения и сообщения об ошибках

Выбранный диапазон

     Имя файла D:\uTorrent.compl\Queen - 'Queen I'  1973 ( 1987 Japan 1st Press CP32-5376 )\Queen - Queen I.wav

     Пиковый уровень 100.0 %
     Качество диапазона 100.0 %
     CRC теста 3E30CCFB
     CRC копии 3E30CCFB
     Копирование... OK

Ошибок не произошло

AccurateRip: сводка

Трек  1  точное извлечение (доверие 2)  [05BEF4FE]
Трек  2  точное извлечение (доверие 2)  [80FF821A]
Трек  3  точное извлечение (доверие 2)  [1CBED4B2]
Трек  4  точное извлечение (доверие 2)  [6B3464D6]
Трек  5  точное извлечение (доверие 2)  [CCCF7551]
Трек  6  точное извлечение (доверие 2)  [EC32B873]
Трек  7  точное извлечение (доверие 2)  [EDE4B1E3]
Трек  8  точное извлечение (доверие 2)  [0BA09226]
Трек  9  точное извлечение (доверие 2)  [E01EA714]
Трек 10  точное извлечение (доверие 2)  [6F71258F]

Все треки извлечены точно

Конец отчёта
Код:
Код:
-----------------------

DON'T MODIFY THIS FILE

-----------------------

PERFORMER: auCDtect Task Manager, ver. 1.5.1RC4 build 1.5.1.5
Copyright (c) 2008-2010 y-soft. All rights reserved
http:/y-soft.org

ANALYZER: auCDtect: CD records authenticity detector, version 0.8.2
Copyright (c) 2004 Oleg Berngardt. All rights reserved.
Copyright (c) 2004 Alexander Djourik. All rights reserved.

FILE: Queen - Queen I.flac
  Size: 238378461 Hash: 032263B4FA433AAAE3AC32853B836772 Accuracy: -m0
  Conclusion: CDDA 99%
  Signature: A3440A36731756CBB2121DCE64F32B739305D213

#777Каталог: CP32-5377

Трек лист:
01. Procession
02. Father To Son
03. White Queen (As It Began)
04. Some Day One Day
05. The Loser In The End
06. Ogre Battle
07. The Fairy Feller's Master Stroke
08. Nevermore
09. The March Of The Black Queen
10. Funny How Love Is
11. Seven Seas Of Rhye

Продолжительность: 00:40:37
Код:
Код:
Exact Audio Copy V0.99 prebeta 5 from 4. May 2009

Отчёт EAC об извлечении, выполненном 26. июня 2011, 18:13

Queen / Queen II

Дисковод: ASUS    SDRW-08D2S-U   Adapter: 2  ID: 0

Режим чтения                 : Достоверность
Использование точного потока : Да
Отключение кэша аудио        : Да
Использование указателей C2  : Нет

Коррекция смещения при чтении                     : 103
Способность читать области Lead-in и Lead-out     : Нет
Заполнение пропущенных сэмплов тишиной            : Да
Удаление блоков с тишиной в начале и конце        : Нет
При вычислениях CRC использовались нулевые сэмплы : Да
Интерфейс                                         : Встроенный Win32-интерфейс для Win NT/2000

Выходной формат          : Пользовательский кодировщик
Выбранный битрейт        : 768 kBit/s
Качество                 : Высокий
Добавление ID3-тэга      : Нет
Утилита сжатия           : C:\Program Files\Exact Audio Copy\FLAC\FLAC.EXE
Дополнительные параметры : -8 -V %s

TOC извлечённого CD

     Трек |   Старт  | Длительность | Начальный сектор | Конечный сектор
    ---------------------------------------------------------------------
       1  |  0:00.32 |    1:12.45   |          32      |       5476
       2  |  1:13.02 |    6:12.35   |        5477      |      33411
       3  |  7:25.37 |    4:34.35   |       33412      |      53996
       4  | 11:59.72 |    4:21.23   |       53997      |      73594
       5  | 16:21.20 |    4:01.67   |       73595      |      91736
       6  | 20:23.12 |    4:07.43   |       91737      |     110304
       7  | 24:30.55 |    2:39.70   |      110305      |     122299
       8  | 27:10.50 |    1:17.52   |      122300      |     128126
       9  | 28:28.27 |    6:03.65   |      128127      |     155416
      10  | 34:32.17 |    3:15.48   |      155417      |     170089
      11  | 37:47.65 |    2:49.15   |      170090      |     182779

Характеристики диапазона извлечения и сообщения об ошибках

Выбранный диапазон

     Имя файла D:\uTorrent.compl\Queen - 'Queen II'  1974 ( 1987 Japan 1st Press CP32-5377 )\Queen - Queen II.wav

     Пиковый уровень 98.1 %
     Качество диапазона 100.0 %
     CRC теста 33346B8B
     CRC копии 33346B8B
     Копирование... OK

Ошибок не произошло

AccurateRip: сводка

Трек  1  точное извлечение (доверие 2)  [0FFEDEEE]
Трек  2  точное извлечение (доверие 2)  [006A65F0]
Трек  3  точное извлечение (доверие 2)  [9F723030]
Трек  4  точное извлечение (доверие 2)  [A21A7DA6]
Трек  5  точное извлечение (доверие 2)  [553D5F36]
Трек  6  точное извлечение (доверие 2)  [0D930F8C]
Трек  7  точное извлечение (доверие 2)  [F729C158]
Трек  8  точное извлечение (доверие 2)  [9913D064]
Трек  9  точное извлечение (доверие 2)  [654E9B3B]
Трек 10  точное извлечение (доверие 2)  [256D49FF]
Трек 11  точное извлечение (доверие 2)  [5E39B923]

Все треки извлечены точно

Конец отчёта
Код:
Код:
-----------------------

DON'T MODIFY THIS FILE

-----------------------

PERFORMER: auCDtect Task Manager, ver. 1.5.1RC4 build 1.5.1.5
Copyright (c) 2008-2010 y-soft. All rights reserved
http:/y-soft.org

ANALYZER: auCDtect: CD records authenticity detector, version 0.8.2
Copyright (c) 2004 Oleg Berngardt. All rights reserved.
Copyright (c) 2004 Alexander Djourik. All rights reserved.

FILE: Queen - Queen II.flac
  Size: 232626543 Hash: 749ACF2EF121B44CD20D70B1FE31EC6E Accuracy: -m0
  Conclusion: MPEG 95%
  Signature: 2F12CABF5633C89E30BEC2D7884B7F764DD9DE59


#777Каталог: CP32-5378

Трек лист:
01. Brighton Rock
02. Killer Queen
03. Tenement Funster
04. Flick Of The Wrist
05. Lily Of The Valley
06. Now I'm Here
07. In The Laps Of The Gods
08. Stone Cold Crazy
09. Dear Friends
10. Misfire
11. Bring Back That Leroy Brown
12. She Makes Me (Stromtrooper In Stilettos)
13. In The Laps Of The Gods ... Revisited

Продолжительность: 00:39:08
Код:
Код:
Exact Audio Copy V0.99 prebeta 5 from 4. May 2009

Отчёт EAC об извлечении, выполненном 17. декабря 2010, 13:20

Queen - Sheer Heart Attack / Sheer Heart Attack

Дисковод: HL-DT-STDVDRAM GSA-T20N   Adapter: 1  ID: 0

Режим чтения                 : Достоверность
Использование точного потока : Да
Отключение кэша аудио        : Да
Использование указателей C2  : Нет

Коррекция смещения при чтении                     : 667
Способность читать области Lead-in и Lead-out     : Нет
Заполнение пропущенных сэмплов тишиной            : Да
Удаление блоков с тишиной в начале и конце        : Нет
При вычислениях CRC использовались нулевые сэмплы : Да
Интерфейс                                         : Встроенный Win32-интерфейс для Win NT/2000

Выходной формат          : Пользовательский кодировщик
Выбранный битрейт        : 768 kBit/s
Качество                 : Высокий
Добавление ID3-тэга      : Нет
Утилита сжатия           : C:\Program Files\Exact Audio Copy\FLAC\FLAC.EXE
Дополнительные параметры : -8 -V %s

TOC извлечённого CD

     Трек |   Старт  | Длительность | Начальный сектор | Конечный сектор
    ---------------------------------------------------------------------
       1  |  0:00.32 |    5:11.08   |          32      |      23364
       2  |  5:11.40 |    3:00.67   |       23365      |      36931
       3  |  8:12.32 |    2:47.13   |       36932      |      49469
       4  | 10:59.45 |    3:17.45   |       49470      |      64289
       5  | 14:17.15 |    1:45.02   |       64290      |      72166
       6  | 16:02.17 |    4:15.35   |       72167      |      91326
       7  | 20:17.52 |    3:22.70   |       91327      |     106546
       8  | 23:40.47 |    2:16.60   |      106547      |     116806
       9  | 25:57.32 |    1:08.68   |      116807      |     121974
      10  | 27:06.25 |    1:50.10   |      121975      |     130234
      11  | 28:56.35 |    2:15.47   |      130235      |     140406
      12  | 31:12.07 |    4:09.60   |      140407      |     159141
      13  | 35:21.67 |    3:45.53   |      159142      |     176069

Характеристики диапазона извлечения и сообщения об ошибках

Выбранный диапазон

     Имя файла D:\uTorrent.compl\Queen - 'Sheer Heart Attack'  Japan 1st Press CP32-5378\Queen - Sheer Heart Attack - Sheer Heart Attack.wav

     Пиковый уровень 97.7 %
     Качество диапазона 100.0 %
     CRC теста 861CFF02
     CRC копии 861CFF02
     Копирование... OK

Ошибок не произошло

AccurateRip: сводка

Трек  1  точное извлечение (доверие 2)  [2FC5A6C2]
Трек  2  точное извлечение (доверие 2)  [0940A1DA]
Трек  3  точное извлечение (доверие 2)  [964E1534]
Трек  4  точное извлечение (доверие 2)  [D01BB72C]
Трек  5  точное извлечение (доверие 2)  [75099841]
Трек  6  точное извлечение (доверие 2)  [CF843B8D]
Трек  7  точное извлечение (доверие 2)  [97181CA4]
Трек  8  точное извлечение (доверие 2)  [1067EADB]
Трек  9  точное извлечение (доверие 2)  [BA5B35A1]
Трек 10  точное извлечение (доверие 2)  [18EC8EAB]
Трек 11  точное извлечение (доверие 2)  [DACE8F96]
Трек 12  точное извлечение (доверие 2)  [D399CF3F]
Трек 13  точное извлечение (доверие 2)  [67EFF950]

Все треки извлечены точно

Конец отчёта
Код:
Код:
-----------------------

DON'T MODIFY THIS FILE

-----------------------

PERFORMER: auCDtect Task Manager, ver. 1.5.1RC4 build 1.5.1.5
Copyright (c) 2008-2010 y-soft. All rights reserved
http:/y-soft.org

ANALYZER: auCDtect: CD records authenticity detector, version 0.8.2
Copyright (c) 2004 Oleg Berngardt. All rights reserved.
Copyright (c) 2004 Alexander Djourik. All rights reserved.

FILE: Queen - Sheer Heart Attack - Sheer Heart Attack.flac
  Size: 237929148 Hash: ABF5E5B407547A24C7A0B2CF22F9B4F2 Accuracy: -m0
  Conclusion: CDDA 100%
  Signature: 95E2D6B61DFC630B60CA12DB208C9827960DBA91

#777Каталог: CP32-5379

Трек лист:
01. Death On Two Legs
02. Lazing On A Sunday Afternoon
03. I'm In Love With My Car
04. You're My Best Friend
05. '39
06. Sweet Lady
07. Seaside Rendezvous
08. The Prophet's Song
09. Love Of My Life
10. Good Company
11. Bohemian Rhapsody
12. God Save The Queen

Продолжительность: 00:43:07
Код:
Код:
Exact Audio Copy V0.99 prebeta 5 from 4. May 2009

EAC extraction logfile from 10. February 2011, 20:37

Queen / A Night at the Opera.CP32-5379

Used drive  : PLEXTOR CD-R   PREMIUM2   Adapter: 0  ID: 1

Read mode               : Secure
Utilize accurate stream : Yes
Defeat audio cache      : Yes
Make use of C2 pointers : No

Read offset correction                      : 30
Overread into Lead-In and Lead-Out          : No
Fill up missing offset samples with silence : Yes
Delete leading and trailing silent blocks   : No
Null samples used in CRC calculations       : Yes
Used interface                              : Installed external ASPI interface

Used output format              : User Defined Encoder
Selected bitrate                : 768 kBit/s
Quality                         : High
Add ID3 tag                     : Yes
Command line compressor         : C:\Program Files\Exact Audio Copy\FLAC\FLAC.EXE
Additional command line options : -6 -V -T "ARTIST=%a" -T "TITLE=%t" -T "ALBUM=%g" -T "DATE=%y" -T "TRACKNUMBER=%n" -T "GENRE=%m" -T "COMMENT=%e" %s -o %d

TOC of the extracted CD

     Track |   Start  |  Length  | Start sector | End sector
    ---------------------------------------------------------
        1  |  0:00.00 |  3:43.67 |         0    |    16791
        2  |  3:43.67 |  1:07.18 |     16792    |    21834
        3  |  4:51.10 |  3:05.05 |     21835    |    35714
        4  |  7:56.15 |  2:52.35 |     35715    |    48649
        5  | 10:48.50 |  3:30.35 |     48650    |    64434
        6  | 14:19.10 |  4:03.55 |     64435    |    82714
        7  | 18:22.65 |  2:15.42 |     82715    |    92881
        8  | 20:38.32 |  8:20.13 |     92882    |   130394
        9  | 28:58.45 |  3:38.57 |    130395    |   146801
       10  | 32:37.27 |  3:17.43 |    146802    |   161619
       11  | 35:54.70 |  5:59.50 |    161620    |   188594
       12  | 41:54.45 |  1:12.47 |    188595    |   194041

Range status and errors

Selected range

     Filename H:\Temp\Queen\A Night At The Opera.1975.CP32-5379.Toshiba-EMI.Japan\Queen - A Night at the Opera.CP32-5379.Japan.wav

     Peak level 89.1 %
     Range quality 100.0 %
     Test CRC 36B5EA3C
     Copy CRC 36B5EA3C
     Copy OK

No errors occurred

AccurateRip summary

Track  1  accurately ripped (confidence 5)  [7B4E17D3]
Track  2  accurately ripped (confidence 4)  [B8DA3B96]
Track  3  accurately ripped (confidence 4)  [2E876F22]
Track  4  accurately ripped (confidence 4)  [F31C3243]
Track  5  accurately ripped (confidence 4)  [04ACA94D]
Track  6  accurately ripped (confidence 4)  [1A23867F]
Track  7  accurately ripped (confidence 4)  [438C31E3]
Track  8  accurately ripped (confidence 4)  [D559C662]
Track  9  accurately ripped (confidence 4)  [2A12D024]
Track 10  accurately ripped (confidence 4)  [E5DC0AE3]
Track 11  accurately ripped (confidence 4)  [4B1FD689]
Track 12  accurately ripped (confidence 4)  [633D60A4]

All tracks accurately ripped

End of status report
Код:
Код:
-----------------------

DON'T MODIFY THIS FILE

-----------------------

PERFORMER: auCDtect Task Manager, ver. 1.5.1RC4 build 1.5.1.5
Copyright (c) 2008-2010 y-soft. All rights reserved
http:/y-soft.org

ANALYZER: auCDtect: CD records authenticity detector, version 0.8.2
Copyright (c) 2004 Oleg Berngardt. All rights reserved.
Copyright (c) 2004 Alexander Djourik. All rights reserved.

FILE: Queen - A Night at the Opera.flac
  Size: 257927024 Hash: 2C6DC1410343419FAF4BB223A52E0E8F Accuracy: -m0
  Conclusion: CDDA 100%
  Signature: F10A1D6774961F9773426D96418D9BC4B1300304

#777Каталог: CP32-5313

Трек лист:
01. Tie Your Mother Down
02. You Take My Breathe Away
03. Long Away
04. The Millionaire Waltz
05. You And I
06. Somebody To Love
07. White Man
08. Good Old Fashioned Lover Boy
09. Drowse 3:43
10. Teo Torriatte (Let Us Cling Together)

Продолжительность: 00:44:22
Код:
Код:
Exact Audio Copy V0.99 prebeta 5 from 4. May 2009

EAC extraction logfile from 9. March 2011, 19:44

Queen / A Day At The Races.CP32-5313.Japan

Used drive  : PLEXTOR CD-R   PREMIUM2   Adapter: 0  ID: 1

Read mode               : Secure
Utilize accurate stream : Yes
Defeat audio cache      : Yes
Make use of C2 pointers : No

Read offset correction                      : 30
Overread into Lead-In and Lead-Out          : No
Fill up missing offset samples with silence : Yes
Delete leading and trailing silent blocks   : No
Null samples used in CRC calculations       : Yes
Used interface                              : Installed external ASPI interface

Used output format              : User Defined Encoder
Selected bitrate                : 768 kBit/s
Quality                         : High
Add ID3 tag                     : Yes
Command line compressor         : C:\Program Files\Exact Audio Copy\FLAC\FLAC.EXE
Additional command line options : -6 -V -T "ARTIST=%a" -T "TITLE=%t" -T "ALBUM=%g" -T "DATE=%y" -T "TRACKNUMBER=%n" -T "GENRE=%m" -T "COMMENT=%e" %s -o %d

TOC of the extracted CD

     Track |   Start  |  Length  | Start sector | End sector
    ---------------------------------------------------------
        1  |  0:00.00 |  4:49.07 |         0    |    21681
        2  |  4:49.07 |  5:07.58 |     21682    |    44764
        3  |  9:56.65 |  3:33.00 |     44765    |    60739
        4  | 13:29.65 |  4:55.47 |     60740    |    82911
        5  | 18:25.37 |  3:27.03 |     82912    |    98439
        6  | 21:52.40 |  4:59.10 |     98440    |   120874
        7  | 26:51.50 |  4:58.65 |    120875    |   143289
        8  | 31:50.40 |  2:54.10 |    143290    |   156349
        9  | 34:44.50 |  3:45.47 |    156350    |   173271
       10  | 38:30.22 |  5:51.70 |    173272    |   199666

Range status and errors

Selected range

     Filename H:\Temp\Queen\A Day At The Races.1976.CP32-5313.Toshiba-EMI.Japan\Queen - A Day At The Races.CP32-5313.Japan.wav

     Peak level 100.0 %
     Range quality 100.0 %
     Test CRC 6AB0F552
     Copy CRC 6AB0F552
     Copy OK

No errors occurred

AccurateRip summary

Track  1  cannot be verified as accurate (confidence 2)  [77C2C157], AccurateRip returned [19EA28A7]
Track  2  cannot be verified as accurate (confidence 2)  [E652F8B2], AccurateRip returned [ECAF08B3]
Track  3  cannot be verified as accurate (confidence 2)  [4C4B44F4], AccurateRip returned [B2F4FBF4]
Track  4  cannot be verified as accurate (confidence 2)  [CB02B2D1], AccurateRip returned [9041FB46]
Track  5  cannot be verified as accurate (confidence 2)  [716B8FDA], AccurateRip returned [53DBFE0A]
Track  6  cannot be verified as accurate (confidence 2)  [83816244], AccurateRip returned [2A0E3895]
Track  7  cannot be verified as accurate (confidence 2)  [D72D3197], AccurateRip returned [A204403E]
Track  8  cannot be verified as accurate (confidence 2)  [EC9245BF], AccurateRip returned [FE9E2FF1]
Track  9  cannot be verified as accurate (confidence 2)  [19D9F849], AccurateRip returned [DCECB36E]
Track 10  cannot be verified as accurate (confidence 2)  [931A95E4], AccurateRip returned [713167AA]

No tracks could be verified as accurate
You may have a different pressing from the one(s) in the database

End of status report
Код:
Код:
-----------------------

DON'T MODIFY THIS FILE

-----------------------

PERFORMER: auCDtect Task Manager, ver. 1.5.1RC4 build 1.5.1.5
Copyright (c) 2008-2010 y-soft. All rights reserved
http:/y-soft.org

ANALYZER: auCDtect: CD records authenticity detector, version 0.8.2
Copyright (c) 2004 Oleg Berngardt. All rights reserved.
Copyright (c) 2004 Alexander Djourik. All rights reserved.

FILE: Queen - A Day At The Races.flac
  Size: 260741412 Hash: 19B9BB5AFB7A28767AD25DA472A81C7C Accuracy: -m0
  Conclusion: CDDA 100%
  Signature: 5B62562B70C4C38A7463B91D5D97D0A174F642DB

#777Каталог: CP32-5314

Трек лист:
01. We Will Rock You
02. We Are The Champions
03. Sheer Heart Attack
04. All Dead, All Dead
05. Spread Your Wings
06. Fight From The Inside
07. Get Down, Make Love
08. Sleeping On The Sidewalk
09. Who Needs You
10. It's Late
11. My Melancholy Blues

Продолжительность: 00:39:24
Код:
Код:
Exact Audio Copy V0.99 prebeta 5 from 4. May 2009

EAC extraction logfile from 22. May 2011, 22:46

Queen / News Of The World.CP32-5314.Japan

Used drive  : PLEXTOR CD-R   PREMIUM2   Adapter: 0  ID: 1

Read mode               : Secure
Utilize accurate stream : Yes
Defeat audio cache      : Yes
Make use of C2 pointers : No

Read offset correction                      : 30
Overread into Lead-In and Lead-Out          : No
Fill up missing offset samples with silence : Yes
Delete leading and trailing silent blocks   : No
Null samples used in CRC calculations       : Yes
Used interface                              : Installed external ASPI interface

Used output format              : User Defined Encoder
Selected bitrate                : 768 kBit/s
Quality                         : High
Add ID3 tag                     : Yes
Command line compressor         : C:\Program Files\Exact Audio Copy\FLAC\FLAC.EXE
Additional command line options : -6 -V -T "ARTIST=%a" -T "TITLE=%t" -T "ALBUM=%g" -T "DATE=%y" -T "TRACKNUMBER=%n" -T "GENRE=%m" -T "COMMENT=%e" %s -o %d

TOC of the extracted CD

     Track |   Start  |  Length  | Start sector | End sector
    ---------------------------------------------------------
        1  |  0:00.00 |  2:01.07 |         0    |     9081
        2  |  2:01.07 |  2:59.43 |      9082    |    22549
        3  |  5:00.50 |  3:27.02 |     22550    |    38076
        4  |  8:27.52 |  3:10.05 |     38077    |    52331
        5  | 11:37.57 |  4:35.15 |     52332    |    72971
        6  | 16:12.72 |  3:04.18 |     72972    |    86789
        7  | 19:17.15 |  3:51.30 |     86790    |   104144
        8  | 23:08.45 |  3:08.40 |    104145    |   118284
        9  | 26:17.10 |  3:08.72 |    118285    |   132456
       10  | 29:26.07 |  6:28.68 |    132457    |   161624
       11  | 35:55.00 |  3:29.22 |    161625    |   177321

Range status and errors

Selected range

     Filename H:\Temp\Queen\News Of The World.1977.CP32-5314.Toshiba-EMI.Japan\Queen - News Of The World.CP32-5314.Japan.wav

     Peak level 100.0 %
     Range quality 99.9 %
     Test CRC E2E3FC9A
     Copy CRC E2E3FC9A
     Copy OK

No errors occurred

AccurateRip summary

Track  1  accurately ripped (confidence 2)  [25D64563]
Track  2  accurately ripped (confidence 2)  [4FEDF697]
Track  3  accurately ripped (confidence 2)  [73F6428B]
Track  4  accurately ripped (confidence 2)  [78E6FDDC]
Track  5  accurately ripped (confidence 2)  [481A979A]
Track  6  accurately ripped (confidence 2)  [A48D20AB]
Track  7  accurately ripped (confidence 2)  [DFC51D59]
Track  8  accurately ripped (confidence 2)  [712924AA]
Track  9  accurately ripped (confidence 2)  [F8C5D23A]
Track 10  accurately ripped (confidence 2)  [949469B0]
Track 11  accurately ripped (confidence 2)  [3F428152]

All tracks accurately ripped

End of status report
Код:
Код:
-----------------------

DON'T MODIFY THIS FILE

-----------------------

PERFORMER: auCDtect Task Manager, ver. 1.5.1RC4 build 1.5.1.5
Copyright (c) 2008-2010 y-soft. All rights reserved
http:/y-soft.org

ANALYZER: auCDtect: CD records authenticity detector, version 0.8.2
Copyright (c) 2004 Oleg Berngardt. All rights reserved.
Copyright (c) 2004 Alexander Djourik. All rights reserved.

FILE: Queen - News Of The World.flac
  Size: 260288683 Hash: 43A16811C584B3F10EC88A136641B352 Accuracy: -m0
  Conclusion: CDDA 100%
  Signature: 019F7DE5B81B66E4BB6D1E5EF69A15313882147F

#777Каталог: CP32-5315

Трек лист:
01 Mustapha
02 Fat Bottomed Girls
03 Jealousy
04 Bicycle Race
05 If You Can't Beat Them
06 Let Me Entertain You
07 Dead On Time
08 In Only Seven Days
09 Dreamer's Ball
10 Fun It
11 Leaving Home Ain't Easy
12 Don't Stop Me Now
13 More Of That Jazz

Продолжительность: 00:44:48
Код:
Код:
Exact Audio Copy V0.99 prebeta 5 from 4. May 2009

Отчёт EAC об извлечении, выполненном 16. декабря 2010, 20:10

Queen / Jazz

Дисковод: HL-DT-STDVDRAM GSA-T20N   Adapter: 1  ID: 0

Режим чтения                 : Достоверность
Использование точного потока : Да
Отключение кэша аудио        : Да
Использование указателей C2  : Нет

Коррекция смещения при чтении                     : 667
Способность читать области Lead-in и Lead-out     : Нет
Заполнение пропущенных сэмплов тишиной            : Да
Удаление блоков с тишиной в начале и конце        : Нет
При вычислениях CRC использовались нулевые сэмплы : Да
Интерфейс                                         : Встроенный Win32-интерфейс для Win NT/2000

Выходной формат          : Пользовательский кодировщик
Выбранный битрейт        : 768 kBit/s
Качество                 : Высокий
Добавление ID3-тэга      : Нет
Утилита сжатия           : C:\Program Files\Exact Audio Copy\FLAC\FLAC.EXE
Дополнительные параметры : -8 -V %s

TOC извлечённого CD

     Трек |   Старт  | Длительность | Начальный сектор | Конечный сектор
    ---------------------------------------------------------------------
       1  |  0:00.00 |    3:01.00   |           0      |      13574
       2  |  3:01.00 |    4:17.35   |       13575      |      32884
       3  |  7:18.35 |    3:13.45   |       32885      |      47404
       4  | 10:32.05 |    3:02.70   |       47405      |      61124
       5  | 13:35.00 |    4:15.32   |       61125      |      80281
       6  | 17:50.32 |    3:01.33   |       80282      |      93889
       7  | 20:51.65 |    3:23.25   |       93890      |     109139
       8  | 24:15.15 |    2:30.15   |      109140      |     120404
       9  | 26:45.30 |    3:31.17   |      120405      |     136246
      10  | 30:16.47 |    3:29.65   |      136247      |     151986
      11  | 33:46.37 |    3:15.20   |      151987      |     166631
      12  | 37:01.57 |    3:29.50   |      166632      |     182356
      13  | 40:31.32 |    4:16.38   |      182357      |     201594

Характеристики диапазона извлечения и сообщения об ошибках

Выбранный диапазон

     Имя файла D:\uTorrent.compl\Queen- 'Jazz'  ( Japan 1st Press CP32-5315 )\Queen - Jazz.wav

     Пиковый уровень 100.0 %
     Качество диапазона 100.0 %
     CRC теста 646CEE10
     CRC копии 646CEE10
     Копирование... OK

Ошибок не произошло

AccurateRip: сводка

Трек  1  точное извлечение (доверие 5)  [E384409E]
Трек  2  точное извлечение (доверие 5)  [E32429BF]
Трек  3  точное извлечение (доверие 5)  [BA44C740]
Трек  4  точное извлечение (доверие 5)  [AF658678]
Трек  5  точное извлечение (доверие 5)  [151766D1]
Трек  6  точное извлечение (доверие 5)  [2F645321]
Трек  7  точное извлечение (доверие 5)  [01B3D78E]
Трек  8  точное извлечение (доверие 5)  [9784520C]
Трек  9  точное извлечение (доверие 5)  [256A48B2]
Трек 10  точное извлечение (доверие 5)  [905D656D]
Трек 11  точное извлечение (доверие 5)  [C724301D]
Трек 12  точное извлечение (доверие 5)  [2D236028]
Трек 13  точное извлечение (доверие 5)  [DF0731A3]

Все треки извлечены точно

Конец отчёта
Код:
Код:
-----------------------

DON'T MODIFY THIS FILE

-----------------------

PERFORMER: auCDtect Task Manager, ver. 1.5.1RC4 build 1.5.1.5
Copyright (c) 2008-2010 y-soft. All rights reserved
http:/y-soft.org

ANALYZER: auCDtect: CD records authenticity detector, version 0.8.2
Copyright (c) 2004 Oleg Berngardt. All rights reserved.
Copyright (c) 2004 Alexander Djourik. All rights reserved.

FILE: Queen - Jazz.flac
  Size: 278742861 Hash: B13C058BAD00B4C31E3F0EAD6156D249 Accuracy: -m0
  Conclusion: MPEG 95%
  Signature: 0077ACE7D3DD3CD43F5999619F43FCECD937BF6E


#777Каталог: CP32-5318

Трек лист:
01. Play The Game 3:30
02. Dragon Attack 4:18
03. Another One BitesThe Dust 3:35
04. Need Your Loving Tonight 2:48
05. Crazy Little Thing Called Love 2:44
06. Rock It (Prime Jive) 4:31
07. Don't Try Suicide 3:52
08. Sail Away Sweet Sister 3:32
09. Coming Soon 2:50
10. Save Me 3:48

Продолжительность: 00:35:39
Код:
Код:
Exact Audio Copy V0.99 prebeta 5 from 4. May 2009

EAC extraction logfile from 31. October 2010, 17:14

Queen / The Game (Japan CP32-5318)

Used drive  : PLEXTOR CD-R   PX-W5224A   Adapter: 4  ID: 0

Read mode               : Secure
Utilize accurate stream : Yes
Defeat audio cache      : Yes
Make use of C2 pointers : No

Read offset correction                      : 30
Overread into Lead-In and Lead-Out          : Yes
Fill up missing offset samples with silence : Yes
Delete leading and trailing silent blocks   : No
Null samples used in CRC calculations       : Yes
Used interface                              : Native Win32 interface for Win NT & 2000

Used output format : Internal WAV Routines
Sample format      : 44.100 Hz; 16 Bit; Stereo

TOC of the extracted CD

     Track |   Start  |  Length  | Start sector | End sector
    ---------------------------------------------------------
        1  |  0:00.00 |  3:30.30 |         0    |    15779
        2  |  3:30.30 |  4:18.52 |     15780    |    35181
        3  |  7:49.07 |  3:36.25 |     35182    |    51406
        4  | 11:25.32 |  2:49.60 |     51407    |    64141
        5  | 14:15.17 |  2:45.40 |     64142    |    76556
        6  | 17:00.57 |  4:31.73 |     76557    |    96954
        7  | 21:32.55 |  3:52.52 |     96955    |   114406
        8  | 25:25.32 |  3:33.00 |    114407    |   130381
        9  | 28:58.32 |  2:51.55 |    130382    |   143261
       10  | 31:50.12 |  3:48.70 |    143262    |   160431

Range status and errors

Selected range

     Filename C:\MUSICTOR\Queen - 1980 - The Game (Japan 2nd press CP32-5318)\Queen - The Game (Japan CP32-5318).wav

     Peak level 100.0 %
     Range quality 100.0 %
     Test CRC B5169869
     Copy CRC B5169869
     Copy OK

No errors occurred

AccurateRip summary

Track  1  accurately ripped (confidence 1)  [095C11C2]
Track  2  accurately ripped (confidence 1)  [36E1D341]
Track  3  accurately ripped (confidence 1)  [C49B4E8D]
Track  4  accurately ripped (confidence 1)  [0AC8943E]
Track  5  accurately ripped (confidence 1)  [0541B86D]
Track  6  accurately ripped (confidence 1)  [7FA384FF]
Track  7  accurately ripped (confidence 1)  [21EC2C37]
Track  8  accurately ripped (confidence 1)  [93BE936E]
Track  9  accurately ripped (confidence 1)  [93B22A12]
Track 10  accurately ripped (confidence 1)  [78526F5D]

All tracks accurately ripped

End of status report
Код:
Код:
-----------------------

DON'T MODIFY THIS FILE

-----------------------

PERFORMER: auCDtect Task Manager, ver. 1.5.1RC4 build 1.5.1.5
Copyright (c) 2008-2010 y-soft. All rights reserved
http:/y-soft.org

ANALYZER: auCDtect: CD records authenticity detector, version 0.8.2
Copyright (c) 2004 Oleg Berngardt. All rights reserved.
Copyright (c) 2004 Alexander Djourik. All rights reserved.

FILE: Queen - The Game.flac
  Size: 217715573 Hash: DC45108AD184C9AF64A8857BEEEF21B9 Accuracy: -m0
  Conclusion: MPEG 95%
  Signature: 115EC697E820D4BBB55929CF9F9BA67CEF85362C


#777Каталог: CP32-5380

Трек лист:
01. Flash's Theme
02. In The Space Capsule (The Love Theme)
03. Ming's Theme (In The Court Of Ming The Merciless)
04. The Ring (Hypnotic Seduction Of Dale)
05. Football Fight
06. In The Death Cell (Love Theme Reprise)
07. Execution Of Flash
08. The Kiss (Aura Resurrects Flash)
09. Arboria (Planet Of The Tree Men)
10. Escape From The Swamp
11. Flash To The Rescue
12. Vultan's Theme (Attack Of The Hawk Men)
13. Battle Theme
14. The Wedding March
15. Marriage Of Dale And Ming (And Flash Approaching)
16. Crash Drive On Mingo City
17. Flash's Theme Reprise (Victory Celebrations)
18. The Hero

Продолжительность: 00:35:11
Код:
Код:
Exact Audio Copy V0.99 prebeta 5 from 4. May 2009

EAC extraction logfile from 10. February 2011, 21:45

Queen / Flash Gordon.CP32-5380

Used drive  : PLEXTOR CD-R   PREMIUM2   Adapter: 0  ID: 1

Read mode               : Secure
Utilize accurate stream : Yes
Defeat audio cache      : Yes
Make use of C2 pointers : No

Read offset correction                      : 30
Overread into Lead-In and Lead-Out          : No
Fill up missing offset samples with silence : Yes
Delete leading and trailing silent blocks   : No
Null samples used in CRC calculations       : Yes
Used interface                              : Installed external ASPI interface

Used output format              : User Defined Encoder
Selected bitrate                : 768 kBit/s
Quality                         : High
Add ID3 tag                     : Yes
Command line compressor         : C:\Program Files\Exact Audio Copy\FLAC\FLAC.EXE
Additional command line options : -6 -V -T "ARTIST=%a" -T "TITLE=%t" -T "ALBUM=%g" -T "DATE=%y" -T "TRACKNUMBER=%n" -T "GENRE=%m" -T "COMMENT=%e" %s -o %d

TOC of the extracted CD

     Track |   Start  |  Length  | Start sector | End sector
    ---------------------------------------------------------
        1  |  0:00.00 |  3:29.72 |         0    |    15746
        2  |  3:29.72 |  2:42.55 |     15747    |    27951
        3  |  6:12.52 |  2:40.68 |     27952    |    40019
        4  |  8:53.45 |  0:57.27 |     40020    |    44321
        5  |  9:50.72 |  1:28.55 |     44322    |    50976
        6  | 11:19.52 |  2:24.68 |     50977    |    61844
        7  | 13:44.45 |  1:05.70 |     61845    |    66789
        8  | 14:50.40 |  1:44.50 |     66790    |    74639
        9  | 16:35.15 |  1:41.32 |     74640    |    82246
       10  | 18:16.47 |  1:43.18 |     82247    |    89989
       11  | 19:59.65 |  2:44.37 |     89990    |   102326
       12  | 22:44.27 |  1:12.15 |    102327    |   107741
       13  | 23:56.42 |  2:18.35 |    107742    |   118126
       14  | 26:15.02 |  0:56.08 |    118127    |   122334
       15  | 27:11.10 |  2:04.35 |    122335    |   131669
       16  | 29:15.45 |  1:00.55 |    131670    |   136224
       17  | 30:16.25 |  1:23.57 |    136225    |   142506
       18  | 31:40.07 |  3:30.65 |    142507    |   158321

Range status and errors

Selected range

     Filename H:\Temp\Queen\Flash Gordon.1980.CP32-5380.Toshiba-EMI.Japan\Queen - Flash Gordon.CP32-5380.Japan.wav

     Peak level 100.0 %
     Range quality 99.9 %
     Test CRC A48EB8FB
     Copy CRC A48EB8FB
     Copy OK

No errors occurred

AccurateRip summary

Track  1  not present in database
Track  2  not present in database
Track  3  not present in database
Track  4  not present in database
Track  5  not present in database
Track  6  not present in database
Track  7  not present in database
Track  8  not present in database
Track  9  not present in database
Track 10  not present in database
Track 11  not present in database
Track 12  not present in database
Track 13  not present in database
Track 14  not present in database
Track 15  not present in database
Track 16  not present in database
Track 17  not present in database
Track 18  not present in database

None of the tracks are present in the AccurateRip database

End of status report
Код:
Код:
-----------------------

DON'T MODIFY THIS FILE

-----------------------

PERFORMER: auCDtect Task Manager, ver. 1.5.1RC4 build 1.5.1.5
Copyright (c) 2008-2010 y-soft. All rights reserved
http:/y-soft.org

ANALYZER: auCDtect: CD records authenticity detector, version 0.8.2
Copyright (c) 2004 Oleg Berngardt. All rights reserved.
Copyright (c) 2004 Alexander Djourik. All rights reserved.

FILE: Queen - Flash Gordon.flac
  Size: 183925741 Hash: 9FFD605C00973229AF91C72B68B180C1 Accuracy: -m0
  Conclusion: CDDA 100%
  Signature: 2AE3A45EC7F5813DCCBBECDCDAFA15F98C137C38

#777Каталог: CP32-5382

Трек лист:
01. Staying Power
02. Dancer
03. Back Chat
04. Body Language
05. Action This Day
06. Put Out The Fire
07. Life Is Real (Song For Lennon)
08. Calling All Girls
09. Las Palabras De Amor (The Words Of Love)
10. Cool Cat
11. Under Pressure

Продолжительность: 00:43:35
Код:
Код:
Exact Audio Copy V0.99 prebeta 5 from 4. May 2009

EAC extraction logfile from 22. May 2011, 23:35

Queen / Hot Space.CP32-5382.Japan

Used drive  : PLEXTOR CD-R   PREMIUM2   Adapter: 0  ID: 1

Read mode               : Secure
Utilize accurate stream : Yes
Defeat audio cache      : Yes
Make use of C2 pointers : No

Read offset correction                      : 30
Overread into Lead-In and Lead-Out          : No
Fill up missing offset samples with silence : Yes
Delete leading and trailing silent blocks   : No
Null samples used in CRC calculations       : Yes
Used interface                              : Installed external ASPI interface

Used output format              : User Defined Encoder
Selected bitrate                : 768 kBit/s
Quality                         : High
Add ID3 tag                     : Yes
Command line compressor         : C:\Program Files\Exact Audio Copy\FLAC\FLAC.EXE
Additional command line options : -6 -V -T "ARTIST=%a" -T "TITLE=%t" -T "ALBUM=%g" -T "DATE=%y" -T "TRACKNUMBER=%n" -T "GENRE=%m" -T "COMMENT=%e" %s -o %d

TOC of the extracted CD

     Track |   Start  |  Length  | Start sector | End sector
    ---------------------------------------------------------
        1  |  0:00.32 |  4:13.10 |        32    |    19016
        2  |  4:13.42 |  3:47.65 |     19017    |    36106
        3  |  8:01.32 |  4:36.03 |     36107    |    56809
        4  | 12:37.35 |  4:31.65 |     56810    |    77199
        5  | 17:09.25 |  3:35.07 |     77200    |    93331
        6  | 20:44.32 |  3:20.05 |     93332    |   108336
        7  | 24:04.37 |  3:31.28 |    108337    |   124189
        8  | 27:35.65 |  3:53.07 |    124190    |   141671
        9  | 31:28.72 |  4:31.08 |    141672    |   162004
       10  | 36:00.05 |  3:29.50 |    162005    |   177729
       11  | 39:29.55 |  4:05.52 |    177730    |   196156

Range status and errors

Selected range

     Filename H:\Temp\Queen\Hot Spase.1982.CP32-5382.Toshiba-EMI.Japan\Queen - Hot Space.CP32-5382.Japan.wav

     Peak level 100.0 %
     Range quality 100.0 %
     Test CRC 6C8D9BC9
     Copy CRC 6C8D9BC9
     Copy OK

No errors occurred

AccurateRip summary

Track  1  not present in database
Track  2  not present in database
Track  3  not present in database
Track  4  not present in database
Track  5  not present in database
Track  6  not present in database
Track  7  not present in database
Track  8  not present in database
Track  9  not present in database
Track 10  not present in database
Track 11  not present in database

None of the tracks are present in the AccurateRip database

End of status report
Код:
Код:
-----------------------

DON'T MODIFY THIS FILE

-----------------------

PERFORMER: auCDtect Task Manager, ver. 1.5.1RC4 build 1.5.1.5
Copyright (c) 2008-2010 y-soft. All rights reserved
http:/y-soft.org

ANALYZER: auCDtect: CD records authenticity detector, version 0.8.2
Copyright (c) 2004 Oleg Berngardt. All rights reserved.
Copyright (c) 2004 Alexander Djourik. All rights reserved.

FILE: Queen - Hot Space.flac
  Size: 271892892 Hash: CD40A3114A3B31B2B06D15AF09642309 Accuracy: -m0
  Conclusion: CDDA 100%
  Signature: 1534DBBC9FD1D7892B40C64E65569682E38250B7

#777Каталог: CP35-3117

Трек лист:
01. Radio Ga Ga
02. Tear It Up
03. It's A Hard Life
04. Man On The Prowl
05. Machines (or 'Back To Humans')
06. I Want To Break Free
07. Keep Passing The Open Windows
08. Hammer To Fall
09. Is This The World We Created...?

Продолжительность: 00:37:26
Код:
Код:
Exact Audio Copy V0.99 prebeta 5 from 4. May 2009

Отчёт EAC об извлечении, выполненном 15. декабря 2010, 10:50

Queen / The Works (Japan CP35)

Дисковод: HL-DT-STDVDRAM GSA-T20N   Adapter: 1  ID: 0

Режим чтения                 : Достоверность
Использование точного потока : Да
Отключение кэша аудио        : Да
Использование указателей C2  : Нет

Коррекция смещения при чтении                     : 667
Способность читать области Lead-in и Lead-out     : Нет
Заполнение пропущенных сэмплов тишиной            : Да
Удаление блоков с тишиной в начале и конце        : Нет
При вычислениях CRC использовались нулевые сэмплы : Да
Интерфейс                                         : Встроенный Win32-интерфейс для Win NT/2000

Выходной формат          : Пользовательский кодировщик
Выбранный битрейт        : 768 kBit/s
Качество                 : Высокий
Добавление ID3-тэга      : Нет
Утилита сжатия           : C:\Program Files\Exact Audio Copy\FLAC\FLAC.EXE
Дополнительные параметры : -8 -V %s

TOC извлечённого CD

     Трек |   Старт  | Длительность | Начальный сектор | Конечный сектор
    ---------------------------------------------------------------------
       1  |  0:00.00 |    5:48.45   |           0      |      26144
       2  |  5:48.45 |    3:28.22   |       26145      |      41766
       3  |  9:16.67 |    4:08.23   |       41767      |      60389
       4  | 13:25.15 |    3:28.05   |       60390      |      75994
       5  | 16:53.20 |    5:09.45   |       75995      |      99214
       6  | 22:02.65 |    3:20.30   |       99215      |     114244
       7  | 25:23.20 |    5:21.40   |      114245      |     138359
       8  | 30:44.60 |    4:28.15   |      138360      |     158474
       9  | 35:13.00 |    2:13.37   |      158475      |     168486

Характеристики диапазона извлечения и сообщения об ошибках

Выбранный диапазон

     Имя файла D:\uTorrent.compl\Queen- 'The Works'  ( Japan 1st Press CP35-3117 )\Queen - The Works (Japan CP35).wav

     Пиковый уровень 100.0 %
     Качество диапазона 100.0 %
     CRC теста AA94066F
     CRC копии AA94066F
     Копирование... OK

Ошибок не произошло

AccurateRip: сводка

Трек  1  точность не определена (достоверность 24)  [FBFDAF6E], AccurateRip вернул [E5F01C4E]
Трек  2  точность не определена (достоверность 24)  [19654315], AccurateRip вернул [E26D5461]
Трек  3  точность не определена (достоверность 24)  [1C21A422], AccurateRip вернул [B4500ADA]
Трек  4  точность не определена (достоверность 24)  [9A3ACA7E], AccurateRip вернул [94248496]
Трек  5  точность не определена (достоверность 24)  [4530517A], AccurateRip вернул [6BEB602A]
Трек  6  точность не определена (достоверность 24)  [E20DD825], AccurateRip вернул [6A35315B]
Трек  7  точность не определена (достоверность 24)  [A8D809E1], AccurateRip вернул [5C58A7EB]
Трек  8  точность не определена (достоверность 24)  [F5D58075], AccurateRip вернул [DDB5F419]
Трек  9  точность не определена (достоверность 24)  [118B0024], AccurateRip вернул [29E87D08]

Ни один трек не прошёл проверки на точность
В вашей базе может быть иной вариант штамповки диска

Конец отчёта
Код:
Код:
-----------------------

DON'T MODIFY THIS FILE

-----------------------

PERFORMER: auCDtect Task Manager, ver. 1.5.1RC4 build 1.5.1.5
Copyright (c) 2008-2010 y-soft. All rights reserved
http:/y-soft.org

ANALYZER: auCDtect: CD records authenticity detector, version 0.8.2
Copyright (c) 2004 Oleg Berngardt. All rights reserved.
Copyright (c) 2004 Alexander Djourik. All rights reserved.

FILE: Queen - The Works.flac
  Size: 237131915 Hash: 0AED73B14D9CEA209E876D623B09E48B Accuracy: -m0
  Conclusion: CDDA 99%
  Signature: AFB8926B62EE834D9F3005CB5F2F9693667A144C

#777Каталог: CP32-5152

Трек лист:
01. One Vision
02. A Kind Of Magic
03. One Year Of Love
04. Pain Is So Close To Pleasure
05. Friends Will Be Friends
06. Who Wants To Live Forever
07. Gimme The Prize (Kurgan's Theme)
08. Don't Lose Your Head
09. Princes Of The Universe

Extra Magical Ingredients:
10. A Kind Of 'A Kind Of Magic'
11. Friends Will Be Friends Will Be Friends...
12. Forever

Продолжительность: 00:53:34
Код:
Код:
Exact Audio Copy V0.99 prebeta 4 from 23. January 2008

EAC extraction logfile from 16. February 2011, 20:11

Queen / A Kind Of Magic (CP32-5152)

Used drive  : PLEXTOR DVDR   PX-760A   Adapter: 0  ID: 0

Read mode               : Secure
Utilize accurate stream : Yes
Defeat audio cache      : Yes
Make use of C2 pointers : No

Read offset correction                      : 30
Overread into Lead-In and Lead-Out          : No
Fill up missing offset samples with silence : Yes
Delete leading and trailing silent blocks   : No
Null samples used in CRC calculations       : Yes
Used interface                              : Installed external ASPI interface

Used output format : Internal WAV Routines
Sample format      : 44.100 Hz; 16 Bit; Stereo

TOC of the extracted CD

     Track |   Start  |  Length  | Start sector | End sector
    ---------------------------------------------------------
        1  |  0:00.32 |  5:11.00 |        32    |    23356
        2  |  5:11.32 |  4:24.48 |     23357    |    43204
        3  |  9:36.05 |  4:27.35 |     43205    |    63264
        4  | 14:03.40 |  4:22.25 |     63265    |    82939
        5  | 18:25.65 |  4:07.67 |     82940    |   101531
        6  | 22:33.57 |  5:16.70 |    101532    |   125301
        7  | 27:50.52 |  4:34.55 |    125302    |   145906
        8  | 32:25.32 |  4:38.10 |    145907    |   166766
        9  | 37:03.42 |  3:33.25 |    166767    |   182766
       10  | 40:36.67 |  3:37.65 |    182767    |   199106
       11  | 44:14.57 |  5:58.15 |    199107    |   225971
       12  | 50:12.72 |  3:20.50 |    225972    |   241021

Range status and errors

Selected range

     Filename D:\bki71\Queen - A Kind Of Magic (CP32-5152).wav

     Peak level 95.5 %
     Range quality 100.0 %
     Test CRC 9F88A908
     Copy CRC 9F88A908
     Copy OK

No errors occurred

AccurateRip summary

Track  1  cannot be verified as accurate (confidence 55)  [1BDAD056], AccurateRip returned [C6EC634D]
Track  2  cannot be verified as accurate (confidence 56)  [B5E4A69D], AccurateRip returned [34300E70]
Track  3  cannot be verified as accurate (confidence 54)  [313A14DF], AccurateRip returned [5A82642A]
Track  4  cannot be verified as accurate (confidence 55)  [6C7CF7C2], AccurateRip returned [9449AE7C]
Track  5  cannot be verified as accurate (confidence 54)  [238B593F], AccurateRip returned [14285CEF]
Track  6  cannot be verified as accurate (confidence 55)  [34BE27A1], AccurateRip returned [2B68ECE0]
Track  7  cannot be verified as accurate (confidence 55)  [893F027C], AccurateRip returned [29474D30]
Track  8  cannot be verified as accurate (confidence 55)  [A97D06AA], AccurateRip returned [A94DDF83]
Track  9  cannot be verified as accurate (confidence 55)  [7E0D6421], AccurateRip returned [6D007E79]
Track 10  cannot be verified as accurate (confidence 53)  [17BB8277], AccurateRip returned [A38AAF36]
Track 11  cannot be verified as accurate (confidence 54)  [754528F5], AccurateRip returned [28CA667B]
Track 12  cannot be verified as accurate (confidence 54)  [61CA0559], AccurateRip returned [1581558A]

No tracks could be verified as accurate
You may have a different pressing from the one(s) in the database

End of status report
Код:
Код:
-----------------------

DON'T MODIFY THIS FILE

-----------------------

PERFORMER: auCDtect Task Manager, ver. 1.5.1RC4 build 1.5.1.5
Copyright (c) 2008-2010 y-soft. All rights reserved
http:/y-soft.org

ANALYZER: auCDtect: CD records authenticity detector, version 0.8.2
Copyright (c) 2004 Oleg Berngardt. All rights reserved.
Copyright (c) 2004 Alexander Djourik. All rights reserved.

FILE: Queen - A Kind Of Magic.flac
  Size: 326616816 Hash: 3A38160B2D986FF753B3EC003CA8BCF3 Accuracy: -m0
  Conclusion: MPEG 95%
  Signature: 7462FB121F602FBCB1726A0962A68DA8BDC91F54


#777Каталог: CP32-5839

Трек лист:
01. Party
02. Khashoggi's Ship
03. The Miracle
04. I Want It All
05. The Invisible Man 3:57
06. Breakthru
07. Rain Must Fall
08. Scandal
09. My Baby Does Me
10. Was It All Worth It

Extra Tracks:
11. Hang On In There
12. Chinese Torture
13. The Invisible Man (12" Version)

Продолжительность: 00:52:19
Код:
Код:
Exact Audio Copy V0.99 prebeta 5 from 4. May 2009

EAC extraction logfile from 22. May 2011, 21:53

Queen / The Miracle.CP32-5839.Japan

Used drive  : PLEXTOR CD-R   PREMIUM2   Adapter: 0  ID: 1

Read mode               : Secure
Utilize accurate stream : Yes
Defeat audio cache      : Yes
Make use of C2 pointers : No

Read offset correction                      : 30
Overread into Lead-In and Lead-Out          : No
Fill up missing offset samples with silence : Yes
Delete leading and trailing silent blocks   : No
Null samples used in CRC calculations       : Yes
Used interface                              : Installed external ASPI interface

Used output format              : User Defined Encoder
Selected bitrate                : 768 kBit/s
Quality                         : High
Add ID3 tag                     : Yes
Command line compressor         : C:\Program Files\Exact Audio Copy\FLAC\FLAC.EXE
Additional command line options : -6 -V -T "ARTIST=%a" -T "TITLE=%t" -T "ALBUM=%g" -T "DATE=%y" -T "TRACKNUMBER=%n" -T "GENRE=%m" -T "COMMENT=%e" %s -o %d

TOC of the extracted CD

     Track |   Start  |  Length  | Start sector | End sector
    ---------------------------------------------------------
        1  |  0:00.00 |  2:24.52 |         0    |    10851
        2  |  2:24.52 |  2:48.23 |     10852    |    23474
        3  |  5:13.00 |  5:02.20 |     23475    |    46144
        4  | 10:15.20 |  4:41.15 |     46145    |    67234
        5  | 14:56.35 |  3:57.47 |     67235    |    85056
        6  | 18:54.07 |  4:08.30 |     85057    |   103686
        7  | 23:02.37 |  4:23.28 |    103687    |   123439
        8  | 27:25.65 |  4:42.62 |    123440    |   144651
        9  | 32:08.52 |  3:23.45 |    144652    |   159921
       10  | 35:32.22 |  5:45.65 |    159922    |   185861
       11  | 41:18.12 |  3:46.18 |    185862    |   202829
       12  | 45:04.30 |  1:46.07 |    202830    |   210786
       13  | 46:50.37 |  5:28.35 |    210787    |   235421

Range status and errors

Selected range

     Filename H:\Temp\Queen\The Miracle.1989.CP32-5839.Toshiba-EMI.Japan\Queen - The Miracle.CP32-5839.Japan.wav

     Peak level 100.0 %
     Range quality 100.0 %
     Test CRC AD2DC234
     Copy CRC AD2DC234
     Copy OK

No errors occurred

AccurateRip summary

Track  1  not present in database
Track  2  not present in database
Track  3  not present in database
Track  4  not present in database
Track  5  not present in database
Track  6  not present in database
Track  7  not present in database
Track  8  not present in database
Track  9  not present in database
Track 10  not present in database
Track 11  not present in database
Track 12  not present in database
Track 13  not present in database

None of the tracks are present in the AccurateRip database

End of status report
Код:
Код:
-----------------------

DON'T MODIFY THIS FILE

-----------------------

PERFORMER: auCDtect Task Manager, ver. 1.5.1RC4 build 1.5.1.5
Copyright (c) 2008-2010 y-soft. All rights reserved
http:/y-soft.org

ANALYZER: auCDtect: CD records authenticity detector, version 0.8.2
Copyright (c) 2004 Oleg Berngardt. All rights reserved.
Copyright (c) 2004 Alexander Djourik. All rights reserved.

FILE: Queen - The Miracle.flac
  Size: 335614798 Hash: 73BD4C5594764C317BE72FA0445721F9 Accuracy: -m0
  Conclusion: CDDA 100%
  Signature: 761B59CDBF191A4703DE5109168B75362AD9D676

#777Каталог: TOCP-6480

Трек лист:
01. Innuendo
02. I'm Going Slightly Mad
03. Headlong
04. I Can't Live With You
05. Don't Try So Hard
06. Ride The Wild Wind
07. All God's People
08. These Are The Days Of Our Lives
09. Delilah
10. The Hitman
11. Bijou
12. The Show Must Go On

Продолжительность: 00:53:49
Код:
Код:
Exact Audio Copy V0.99 prebeta 5 from 4. May 2009

EAC extraction logfile from 18. December 2010, 20:27

Queen / Innuendo.TOCP-6480.Japan

Used drive  : PLEXTOR CD-R   PREMIUM2   Adapter: 0  ID: 1

Read mode               : Secure
Utilize accurate stream : Yes
Defeat audio cache      : Yes
Make use of C2 pointers : No

Read offset correction                      : 30
Overread into Lead-In and Lead-Out          : No
Fill up missing offset samples with silence : Yes
Delete leading and trailing silent blocks   : No
Null samples used in CRC calculations       : Yes
Used interface                              : Installed external ASPI interface

Used output format              : User Defined Encoder
Selected bitrate                : 768 kBit/s
Quality                         : High
Add ID3 tag                     : Yes
Command line compressor         : C:\Program Files\Exact Audio Copy\FLAC\FLAC.EXE
Additional command line options : -6 -V -T "ARTIST=%a" -T "TITLE=%t" -T "ALBUM=%g" -T "DATE=%y" -T "TRACKNUMBER=%n" -T "GENRE=%m" -T "COMMENT=%e" %s -o %d

TOC of the extracted CD

     Track |   Start  |  Length  | Start sector | End sector
    ---------------------------------------------------------
        1  |  0:00.00 |  6:31.22 |         0    |    29346
        2  |  6:31.22 |  4:22.13 |     29347    |    49009
        3  | 10:53.35 |  4:38.17 |     49010    |    69876
        4  | 15:31.52 |  4:33.43 |     69877    |    90394
        5  | 20:05.20 |  3:39.10 |     90395    |   106829
        6  | 23:44.30 |  4:42.70 |    106830    |   128049
        7  | 28:27.25 |  4:21.47 |    128050    |   147671
        8  | 32:48.72 |  4:15.28 |    147672    |   166824
        9  | 37:04.25 |  3:35.27 |    166825    |   182976
       10  | 40:39.52 |  4:56.45 |    182977    |   205221
       11  | 45:36.22 |  3:36.68 |    205222    |   221489
       12  | 49:13.15 |  4:35.60 |    221490    |   242174

Range status and errors

Selected range

     Filename H:\Temp\Queen\Innuendo.1991.TOCP-6480.Toshiba-EMI.Japan\Queen - Innuendo.TOCP-6480.Japan.wav

     Peak level 98.3 %
     Range quality 99.9 %
     Test CRC B1E4E536
     Copy CRC B1E4E536
     Copy OK

No errors occurred

AccurateRip summary

Track  1  accurately ripped (confidence 2)  [5AC44DAE]
Track  2  accurately ripped (confidence 2)  [D39F1086]
Track  3  accurately ripped (confidence 2)  [8D6083C5]
Track  4  accurately ripped (confidence 2)  [D95AC4EB]
Track  5  accurately ripped (confidence 2)  [FE9FB4E0]
Track  6  accurately ripped (confidence 2)  [2C15ECB7]
Track  7  accurately ripped (confidence 2)  [F4A89665]
Track  8  accurately ripped (confidence 2)  [BFC9F8A6]
Track  9  accurately ripped (confidence 2)  [9D9AAC8C]
Track 10  accurately ripped (confidence 2)  [5B6F7FC7]
Track 11  accurately ripped (confidence 2)  [FB13A350]
Track 12  accurately ripped (confidence 2)  [ED882D9E]

All tracks accurately ripped

End of status report
Код:
Код:
-----------------------

DON'T MODIFY THIS FILE

-----------------------

PERFORMER: auCDtect Task Manager, ver. 1.5.1RC4 build 1.5.1.5
Copyright (c) 2008-2010 y-soft. All rights reserved
http:/y-soft.org

ANALYZER: auCDtect: CD records authenticity detector, version 0.8.2
Copyright (c) 2004 Oleg Berngardt. All rights reserved.
Copyright (c) 2004 Alexander Djourik. All rights reserved.

FILE: Queen - Innuendo.flac
  Size: 339604848 Hash: 38F83CA8E64253013B371A3521CE169B Accuracy: -m0
  Conclusion: CDDA 100%
  Signature: 32D592162C8D337195571B92C80080EAE9270070

Правила, инструкции, FAQ!!!
Торрент  Добавлен [16 мар 2014, 00:04] Скачать торрент Магнет ссылка
Скачать торрент
[ Размер 25.04 КБ / Просмотров 70 ]

Статус  
 
Размер  3.45 ГБ
Приватный: Нет (DHT включён)
.torrent скачан  2
 


     Отправить личное сообщение
   
Страница 1 из 1
Показать сообщения за:  Поле сортировки  
Начать новую тему Ответить на тему


Сейчас этот форум просматривают: нет зарегистрированных пользователей и гости: 0


Вы не можете начинать темы
Вы не можете отвечать на сообщения
Вы не можете редактировать свои сообщения
Вы не можете удалять свои сообщения
Вы не можете добавлять вложения

Перейти:  
cron