Начать новую тему Ответить на тему
Статистика раздачи
Размер: 1.46 ГБ | Добавлен: 16 мар 2014, 00:55 | Скачали: 0
Сидеров: 1  [0 байт/сек]    Личеров: 52  [0 байт/сек]
Пред. тема | След. тема 

Автор
Сообщение

СообщениеДобавлено: 16 мар 2014, 00:55 

Ответить с цитатой 

Q65 - 4 Альбома (1966-1997)

Жанр: Garage Rock/Rhythm and Blues
Cтрана: Netherlands
Год: 1966-1997
Аудио кодек: WAV/FLAC
Тип рипа: image+.cue
Битрейт аудио: lossless
Продолжительность: 03:57:55
Наличие сканов в раздаче: да
Источник: Internet
    Willem Bieler — вокал
    Frank Nuyens — гитара
    Derk Groen — гитара
    Dicky Schulte Nordholt — бас
    Hans Waterman — ударные
#777
Группа «Q65» являлась голландским ответом «Pretty Things», поскольку исполняла такой же грязный и непричесанный ритм-энд-блюз.
Группа Q65 возникла эволюционным путём из гаагской бит-формации под названием «Leadbelly's Ltd.», где одним из участников являлся барабанщик Джей Баар. В 1964-м в команде появился вокалист Виллем Билер, следом подтянулись гитаристы Йооп Ролофс и Франк Нуйенс, а формирование состава завершилось с прибытием басиста Петера Винка. Начав с традиционных блюзов Роберта Джонсона и Вилли Диксона, квинтет перешёл на более современный материал, исполняя каверы «Kinks», «Animals» и «Rolling Stones». Кстати, именно последняя команда вдохновила Ролофса на переименование ансамбля, для чего были скрещены названия песен «Suzie Q» и «Route 66». Впрочем, поскольку дело происходило в 1965 году, то без небольшой коррекции не обошлось, и окончательный вариант выглядел как «Q65». Весной стартовала концертная деятельность квинтета, и всего за несколько месяцев музыканты сумели поднять тарифы за выступление с 10 до 150 гульденов.
На данном этапе перед ними возник продюсер Петер Колевийн, с подачи которого был выпущен дебютный сингл «You're the Victor», чуть-чуть не дотянувший до горячей десятки. Желая повысить результативность, для промоушена второго миньона музыканты погрузились в резиновый мотобот и поплыли в Англию. И хотя большинство из них промучилось от морской болезни, а запланированного лондонского концерта отыграть не удалось, трюк все же сработал.
По прибытии «Q65» на родину их встречала восторженная толпа, и прямо на берегу было организовано выступление. В конечном итоге сорокапятка «The Life I Live» расположилась на пятой строчке, и фирма «Phonogram» отправила группу записывать дебютный гигант. Половину альбома составляли блюзовые стандарты и каверы разных исполнителей от Вилли Диксона до Отиса Реддинга, однако и собственные номера группы вполне конкурировали с ними. Так или иначе, но за короткий срок пластинка разошлась 30-тысячным тиражом, что для Голландии являлось очень хорошим показателем. Под конец года «Q65» выстрелили хит-синглом «I Despise You», с обратной стороны которого находилась баллада «Ann», ставшая завсегдатаем радиопрограмм и впоследствии запечатлённая на a-сайде. В 1967-м началось увлечение музыкантов наркотиками, в результате чего их творчество стало дрейфовать в сторону психоделии. Новое направление отмечалось снижением успеха, а когда Виллема забрали в армию, группа распалась, и Франк, Джей и Йооп организовали проект «Circus».
Тем не менее, у команды оставался контрактный должок перед «Phonogram», и лейбл решил реализовать своё право, выпустив диск-гигант «Revival», на который попали как сингловые вещи «Q65», так и переработанные треки из репертуара «Circus». Выход альбома послужил толчком для воссоединения ансамбля, однако Баар не участвовал в реюнионе, и его место занял экс-ударник «Group 1850» Беер Клаассе.
Заключив сделку с «Negram Records», коллектив дебютировал с синглом «Don't Let Me Fall», а осенью 1970-го вышел альбом «Afghanistan». Песни группы стали чуточку мелодичнее, но в основном «Q65» продолжали исповедовать сырой ритм-энд-блюз. Изданный на сорокапятке номер «Sexy Legs» две недели провёл в голландском Топ 40, но в дальнейшем удача вновь стала ускользать от команды. Лонгплей «We're Gonna Make it», являвшийся по сути сборником синглового материала и различных остатков, не получил никакого промоушена от «Negram», и музыканты решили поискать счастья на «Polydor». Тем временем ушёл измученный внутренними конфликтами Билер, а к микрофону встал Джонни Фредерикс. Ансамбль тут же переименовали в «Kjoe», но в 1974-м проект рухнул окончательно. В 1980-м «Q65» в оригинальном виде предстали на мероприятии «The Hague Beatnach», и хотя то выступление прошло неудачно, спустя четыре года команда опять заработала.
На тот момент из игры выбыли Баар и Нуйенс, однако группа продолжала гастролировать с Клаассе и гитаристом Йоопом Нимвегеном. В 1997-м после долгого перерыва появился альбом «Trinity», куда вошли не только перепевки старых вещей но и новый материал. На следующий год начались кадровые перестановки, но, тем не менее «Q65» готовили запись следующего CD, и лишь смерть Билера, скончавшегося 21 ноября 2000 года, не дала осуществить им эту задумку.
#777
Revolution
Год: 1966
Label: Rotation/Universal Music B.V.
Catalog#: 018 440-2
Аудио кодек: WAVPack
Продолжительность: 00:58:35
Трек лист:
01. The Life I Live (3:23)
02. I Got Nightmares (2:29)
03. Just Who's In Sight (3:11)
04. Mr. Pitiful (2:22)
05. I'm A Man (4:39)
06. Middle-Age Talk (2:30)
07. Summer Thoughts In A Field Of Weed (2:26)
08. Down In The Bottom (1:45)
09. Get Out Of My Life, Woman (2:28)
10. Spoonful (3:30)
11. Sour Wine (2:59)
12. Bring It On Home (13:47)
13. Where Is The Key (2:21)
14. Voluntary Peacemaker (5:01)
15. It Came To Me (2:35)
16. No Place To Go (3:08)
    Musicians:
    Jay Baar - drums
    Willem Bieler - harmonica, vocals
    Ian Kew - keyboards
    Frank Nuyens - guitar
    Joop Roelofs - guitar
    Peter Vink - bass

Код:
Код:
Exact Audio Copy V0.99 prebeta 5 from 4. May 2009

EAC extraction logfile from 5. September 2009, 22:44

Q65 / Revolution

Used drive  : HL-DT-STDVDRRW GSA-2164D   Adapter: 6  ID: 0

Read mode               : Secure
Utilize accurate stream : Yes
Defeat audio cache      : Yes
Make use of C2 pointers : No

Read offset correction                      : 102
Overread into Lead-In and Lead-Out          : No
Fill up missing offset samples with silence : Yes
Delete leading and trailing silent blocks   : No
Null samples used in CRC calculations       : Yes
Used interface                              : Native Win32 interface for Win NT & 2000

Used output format : Internal WAV Routines
Sample format      : 44.100 Hz; 16 Bit; Stereo

TOC of the extracted CD

     Track |   Start  |  Length  | Start sector | End sector
    ---------------------------------------------------------
        1  |  0:00.00 |  3:22.58 |         0    |    15207
        2  |  3:22.58 |  2:29.36 |     15208    |    26418
        3  |  5:52.19 |  3:10.71 |     26419    |    40739
        4  |  9:03.15 |  2:22.24 |     40740    |    51413
        5  | 11:25.39 |  4:39.19 |     51414    |    72357
        6  | 16:04.58 |  2:30.15 |     72358    |    83622
        7  | 18:34.73 |  2:26.32 |     83623    |    94604
        8  | 21:01.30 |  1:44.74 |     94605    |   102478
        9  | 22:46.29 |  2:28.23 |    102479    |   113601
       10  | 25:14.52 |  3:30.29 |    113602    |   129380
       11  | 28:45.06 |  2:58.70 |    129381    |   142800
       12  | 31:44.01 | 13:46.53 |    142801    |   204803
       13  | 45:30.54 |  2:20.38 |    204804    |   215341
       14  | 47:51.17 |  5:01.04 |    215342    |   237920
       15  | 52:52.21 |  2:35.18 |    237921    |   249563
       16  | 55:27.39 |  3:07.48 |    249564    |   263636

Range status and errors

Selected range

     Filename D:\My Rips\Q65 - Revolution (1966)\Q65 - Revolution.wav

     Peak level 99.9 %
     Range quality 100.0 %
     Copy CRC CE1B2F75
     Copy OK

No errors occurred

AccurateRip summary

Track  1  not present in database
Track  2  not present in database
Track  3  not present in database
Track  4  not present in database
Track  5  not present in database
Track  6  not present in database
Track  7  not present in database
Track  8  not present in database
Track  9  not present in database
Track 10  not present in database
Track 11  not present in database
Track 12  not present in database
Track 13  not present in database
Track 14  not present in database
Track 15  not present in database
Track 16  not present in database

None of the tracks are present in the AccurateRip database

End of status report
Код:
Код:
-----------------------

DON'T MODIFY THIS FILE

-----------------------

PERFORMER: auCDtect Task Manager, ver. 1.6.0 RC1 build 1.6.0.1
Copyright (c) 2008-2010 y-soft. All rights reserved
http:/y-soft.org

ANALYZER: auCDtect: CD records authenticity detector, version 0.8.2
Copyright (c) 2004 Oleg Berngardt. All rights reserved.
Copyright (c) 2004 Alexander Djourik. All rights reserved.

FILE: Q65 - Revolution.wv
  Size: 350395229 Hash: 7A76C81C940A7802D80BB3EFA75B4CE0 Accuracy: -m0
  Conclusion: CDDA 100%
  Signature: DD187D2A2FF8467E53A67C8F0BB1E2EA31709063
#777
Revival
Год: 1966/1968
Год издания диска: 1997
Label: Pseudonym Records
Catalog#: CDP 1048 DD
Аудио кодек: FLAC
Продолжительность: 01:00:24
Трек лист:
01. Cry In The Night (2:16)
02. No Place To Go (3:10)
03. It Came To Me (2:36)
04. I Was Young (2:37)
05. World Of Birds (3:29)
06. So High I've Been, So Down I Must Fall (3:12)
07. Sundance (4:40)
08. Voluntary Peacemake (5:03)
09. Ridin' On A Slow Train (4:14)
10. Fairy Tales Of Truth (5:52)
11. And Your Kind (3:12)
12. I Despice You (2:26)
13. Where Is The Key (2:21)
14. Ain't That Loving You Baby (2:21)
15. Ramblin' On My Mind (4:50)
16. 80% O (2:47)
17. Mother Mutha's Great Sundance (4:23)
18. Q65 - [Hidden Bonus Cut] (0:57)
    Musicians:
    Willen Bieler - vocals
    Frank Nuyens - guitar
    Joop Roelofs - electric & acoustic guitars
    Peter Vink - bass-guitar, contra-bass, harmonium
    Guest appearence:
    Hans van Hemert - vocals (track 8)
    Marco Klein - piano, orgel (track 7, 8 & 10)
    Paul Natte - mellotron (track 10)
Код:
Код:
EAC extraction logfile from 23. July 2006, 0:04 for CD
Q65 / Revival

Used drive  : PLEXTOR DVDR   PX-716A   Adapter: 0  ID: 0
Read mode   : Secure with NO C2, accurate stream, disable cache
Read offset correction : 30
Overread into Lead-In and Lead-Out : Yes

Used output format : Internal WAV Routines
                     44.100 Hz; 16 Bit; Stereo

Other options      :
    Fill up missing offset samples with silence : Yes
    Delete leading and trailing silent blocks : No
    Installed external ASPI interface

Range status and errors
Selected range
     Filename E:\Q65\1997 - Revival\Revival.wav

     Peak level 100.0 %
     Range quality 100.0 %
     CRC 524C7A03
     Copy OK

No errors occured

End of status report
Код:
Код:
-----------------------

DON'T MODIFY THIS FILE

-----------------------

PERFORMER: auCDtect Task Manager, ver. 1.6.0 RC1 build 1.6.0.1
Copyright (c) 2008-2010 y-soft. All rights reserved
http:/y-soft.org

ANALYZER: auCDtect: CD records authenticity detector, version 0.8.2
Copyright (c) 2004 Oleg Berngardt. All rights reserved.
Copyright (c) 2004 Alexander Djourik. All rights reserved.

FILE: Revival.flac
  Size: 372283777 Hash: 31CC9FA1B95E0FD4AF29578A6FBC7731 Accuracy: -m0
  Conclusion: CDDA 99%
  Signature: 62FA9DDFFBF4E8F52A2E2423C9B755342F0088EF
#777Afghanistan (Negram Years 1970-1971)
Год: 1970/1971
Год издания диска: 1992
Label: Pseudonym Records
Catalog#: CDP 1002 DD
Аудио кодек: FLAC
Продолжительность: 01:14:45
Трек лист:
01. Love Is Such A Good Thing (3:12)
02. Injection (1:28)
03. Baby Don't Worry (3:22)
04. I'm Glad (2:43)
05. Nobody Knows When You're Down & Out (3:40)
06. Please Come Back To Me (3:05)
07. We Are Happy (4:23)
08. I Gotta Move (2:50)
09. There Was A Day (2:46)
10. Don't Let Me Fall (2:48)
11. Crumblin' (2:58)
12. Night (8:02)
13. Sexy Legs (1:55)
14. I Just Can't Wait (4:56)
15. We're Gonna Make It (2:54)
16. Saddy (2:45)
17. On The Highway (6:52)
18. Rock & Roll Medley (14:07)
    Musicians:
    Wim Bieler - vocals, harmonica
    Joop Roelofs - guitar, slide steel guitar, vocals
    Beer Klaasse - drums, vocals
    Peter Vink - bass, vocals
    Additional guests:
    Rinus Gerritsen - vocals, piano (tracks 3-7)
    Barry Hay - vocals, flute (tracks 3-7)
    Hannie Bieler, Josette Nuyens & Nel Vink - vocals (track 7)

Код:
Код:
Exact Audio Copy V0.99 prebeta 5 from 4. May 2009

EAC extraction logfile from 9. September 2009, 22:33

Q 65 / Afghanistan (Negram Years 1970-1971)

Used drive  : HL-DT-STDVDRRW GSA-2164D   Adapter: 6  ID: 0

Read mode               : Secure
Utilize accurate stream : Yes
Defeat audio cache      : Yes
Make use of C2 pointers : No

Read offset correction                      : 102
Overread into Lead-In and Lead-Out          : No
Fill up missing offset samples with silence : Yes
Delete leading and trailing silent blocks   : No
Null samples used in CRC calculations       : Yes
Used interface                              : Native Win32 interface for Win NT & 2000

Used output format : Internal WAV Routines
Sample format      : 44.100 Hz; 16 Bit; Stereo

TOC of the extracted CD

     Track |   Start  |  Length  | Start sector | End sector
    ---------------------------------------------------------
        1  |  0:00.00 |  3:11.72 |         0    |    14396
        2  |  3:11.72 |  1:27.70 |     14397    |    20991
        3  |  4:39.67 |  3:21.50 |     20992    |    36116
        4  |  8:01.42 |  2:43.08 |     36117    |    48349
        5  | 10:44.50 |  3:39.65 |     48350    |    64839
        6  | 14:24.40 |  3:05.25 |     64840    |    78739
        7  | 17:29.65 |  4:23.07 |     78740    |    98471
        8  | 21:52.72 |  2:49.73 |     98472    |   111219
        9  | 24:42.70 |  2:45.47 |    111220    |   123641
       10  | 27:28.42 |  2:48.15 |    123642    |   136256
       11  | 30:16.57 |  2:58.15 |    136257    |   149621
       12  | 33:14.72 |  8:02.33 |    149622    |   185804
       13  | 41:17.30 |  1:54.55 |    185805    |   194409
       14  | 43:12.10 |  4:56.12 |    194410    |   216621
       15  | 48:08.22 |  2:53.40 |    216622    |   229636
       16  | 51:01.62 |  2:44.50 |    229637    |   241986
       17  | 53:46.37 |  6:51.63 |    241987    |   272874
       18  | 60:38.25 | 14:06.72 |    272875    |   336396

Range status and errors

Selected range

     Filename D:\My Rips\Q65\Q 65 - Afghanistan (Negram Years 1970-1971).wav

     Peak level 100.0 %
     Range quality 100.0 %
     Copy CRC 76058809
     Copy OK

No errors occurred

AccurateRip summary

Track  1  not present in database
Track  2  not present in database
Track  3  not present in database
Track  4  not present in database
Track  5  not present in database
Track  6  not present in database
Track  7  not present in database
Track  8  not present in database
Track  9  not present in database
Track 10  not present in database
Track 11  not present in database
Track 12  not present in database
Track 13  not present in database
Track 14  not present in database
Track 15  not present in database
Track 16  not present in database
Track 17  not present in database
Track 18  not present in database

None of the tracks are present in the AccurateRip database

End of status report
Код:
Код:
-----------------------

DON'T MODIFY THIS FILE

-----------------------

PERFORMER: auCDtect Task Manager, ver. 1.6.0 RC1 build 1.6.0.1
Copyright (c) 2008-2010 y-soft. All rights reserved
http:/y-soft.org

ANALYZER: auCDtect: CD records authenticity detector, version 0.8.2
Copyright (c) 2004 Oleg Berngardt. All rights reserved.
Copyright (c) 2004 Alexander Djourik. All rights reserved.

FILE: Q 65 - Afghanistan (Negram Years 1970-1971).flac
  Size: 483113207 Hash: 8D70402B9B6F5F0B7A7B9886AD281A0A Accuracy: -m0
  Conclusion: CDDA 100%
  Signature: 3B378AC69CE9FFDE0B848B57425878280A5A04EE
#777
Trinity
Год/Издание: 1997
Label: Mohican Productions
Catalog#: MH001
Аудио кодек: FLAC
Продолжительность: 00:44:10
Трек лист:
01. Franky's Blues (2:57)
02. Sexy Legs (1:55)
03. The Life I Live (3:09)
04. Sour Wine (3:30)
05. Fighting Is Easy (2:57)
06. Bring It On Home (3:29)
07. Spoonfull' (2:11)
08. Dutch Mill$ (3:17)
09. Middle-Age Talk (3:16)
10. I Got Nightmares (2:34)
11. Let's Roll (4:39)
12. We're Gonna Make It (2:42)
13. No Home (3:30)
14. Night (4:05)
    Musicians:
    Joop Roelofs - acoustic guitar
    Frank Nuijens - guitar, acoustic Guitar, slide guitar
    Wim Bieler - vocals, harmonica, percussion

Код:
Код:
Exact Audio Copy V0.99 prebeta 4 from 23. January 2008

Отчёт EAC об извлечении, выполненном 7. апреля 2009, 17:57

Q 65 / Trinity

Дисковод: _NEC    DVD_RW ND-3550A   Adapter: 0  ID: 0

Режим чтения                 : Достоверность
Использование точного потока : Да
Отключение кэша аудио        : Да
Использование указателей C2  : Нет

Коррекция смещения при чтении                     : 48
Способность читать области Lead-in и Lead-out     : Нет
Заполнение пропущенных сэмплов тишиной            : Да
Удаление блоков с тишиной в начале и конце        : Нет
При вычислениях CRC использовались нулевые сэмплы : Да
Интерфейс                                         : Установленный внешний ASPI-интерфейс

Выходной формат : Внутренние WAV-операции
Формат сэмплов  : 44.100 Гц; 16 бит; стерео

TOC извлечённого CD

     Трек |   Старт  | Длительность | Начальный сектор | Конечный сектор
    ---------------------------------------------------------------------
       1  |  0:00.00 |    2:56.64   |           0      |      13263
       2  |  2:56.64 |    1:55.05   |       13264      |      21893
       3  |  4:51.69 |    3:08.74   |       21894      |      36067
       4  |  8:00.68 |    3:30.21   |       36068      |      51838
       5  | 11:31.14 |    2:56.59   |       51839      |      65097
       6  | 14:27.73 |    3:29.07   |       65098      |      80779
       7  | 17:57.05 |    2:11.20   |       80780      |      90624
       8  | 20:08.25 |    3:16.46   |       90625      |     105370
       9  | 23:24.71 |    3:16.14   |      105371      |     120084
      10  | 26:41.10 |    2:33.38   |      120085      |     131597
      11  | 29:14.48 |    4:38.73   |      131598      |     152520
      12  | 33:53.46 |    2:42.02   |      152521      |     164672
      13  | 36:35.48 |    3:30.06   |      164673      |     180428
      14  | 40:05.54 |    4:04.45   |      180429      |     198773

Характеристики диапазона извлечения и сообщения об ошибках

Выбранный диапазон

     Имя файла D:\001-torrent\Q 65 - Trinity\Q 65 - Trinity.wav

     Пиковый уровень 100.0 %
     Качество диапазона 100.0 %
     CRC копии 690EECBA
     Копирование... OK

Ошибок не произошло

Конец отчёта
Код:
Код:
-----------------------

DON'T MODIFY THIS FILE

-----------------------

PERFORMER: auCDtect Task Manager, ver. 1.6.0 RC1 build 1.6.0.1
Copyright (c) 2008-2010 y-soft. All rights reserved
http:/y-soft.org

ANALYZER: auCDtect: CD records authenticity detector, version 0.8.2
Copyright (c) 2004 Oleg Berngardt. All rights reserved.
Copyright (c) 2004 Alexander Djourik. All rights reserved.

FILE: Q 65 - Trinity.flac
  Size: 310641598 Hash: A2AF561BF2C2115C7E765AC07E816573 Accuracy: -m0
  Conclusion: CDDA 100%
  Signature: D6564A69BE8733CB3288A78183274DD45D5B394A
Правила, инструкции, FAQ!!!
Торрент  Добавлен [16 мар 2014, 00:55] Скачать торрент Магнет ссылка
Скачать торрент
[ Размер 18.65 КБ / Просмотров 26 ]

Статус  
 
Размер  1.46 ГБ
Приватный: Нет (DHT включён)
.torrent скачан  0
 


     Отправить личное сообщение
   
Страница 1 из 1
Показать сообщения за:  Поле сортировки  
Начать новую тему Ответить на тему


Сейчас этот форум просматривают: нет зарегистрированных пользователей и гости: 0


Вы не можете начинать темы
Вы не можете отвечать на сообщения
Вы не можете редактировать свои сообщения
Вы не можете удалять свои сообщения
Вы не можете добавлять вложения

Перейти:  
cron