Начать новую тему Ответить на тему
Статистика раздачи
Размер: 652.02 МБ | Добавлен: 24 авг 2016, 11:37 | Скачали: 0
Сидеров: 4  [0 байт/сек]    Личеров: 1  [0 байт/сек]
Пред. тема | След. тема 

Автор
Сообщение

СообщениеДобавлено: 24 авг 2016, 11:37 

Ответить с цитатой 

Ramones - Road to Ruin

Жанр: Punk Rock
Год выпуска: 1978
Лейбл: Sire (SRK 6063)
Страна-производитель: US
Аудио кодек: FLAC
Тип рипа: tracks
Формат записи: 24/96
Формат раздачи: 24/96
Продолжительность: 00:31:18

Треклист:
A1 - I Just Want To Have Something To Do
A2 - I Wanted Everything
A3 - Don't Come Close
A4 - I Don't Want You
A5 - Needles And Pins
A6 - I'm Against It
B1 - I Wanna Be Sedated
B2 - Go Mental
B3 - Questioningly
B4 - She's The One
B5 - Bad Brain
B6 - It's A Long Way Back

Источник оцифровки: DeusIrae72, demonoid
Код класса состояния винила: Неизвестно
Устройство воспроизведения: Music Hall MMF 9.1
Головка звукоснимателя: Goldring 1042
Предварительный усилитель: Bellari VP-130 phono preamp, with vintage Telefunk
АЦП: Mytek Stereo192 ADC
Программа-оцифровщик: Soundforge 10.0
Обработка: ClickRepair 3.5.2 (in manual mode), Trader's Little Helper 2.7.0
A1 - I Just Want To Have Something To Do

B5 - Bad Brain
A1 - I Just Want To Have Something To Do

B5 - Bad Brain
A1 - I Just Want To Have Something To Do

B5 - Bad Brain
: foobar2000 1.1.13 / Dynamic Range Meter 1.1.1
log date: 2012-07-23 09:57:47

--------------------------------------------------------------------------------
Analyzed: Ramones / Road To Ruin
--------------------------------------------------------------------------------

DR Peak RMS Duration Track
--------------------------------------------------------------------------------
DR14 -0.20 dB -17.30 dB 2:41 01-I Just Want To Have Something To Do
DR14 -0.42 dB -17.24 dB 3:18 02-I Wanted Everything
DR14 -1.51 dB -17.87 dB 2:45 03-Don't Come Close
DR13 -1.71 dB -17.02 dB 2:26 04-I Don't Want You
DR15 -1.80 dB -18.14 dB 2:21 05-Needles & Pins
DR13 -2.36 dB -17.12 dB 2:10 06-I'm Against It
DR14 -0.53 dB -16.36 dB 2:30 07-I Wanna Be Sedated
DR13 -0.90 dB -15.02 dB 2:42 08-Go Mental
DR14 -1.78 dB -17.49 dB 3:22 09-Questioningly
DR13 -1.60 dB -15.21 dB 2:13 10-She's The One
DR14 -0.40 dB -17.19 dB 2:25 11-Bad Brain
DR14 -0.74 dB -16.38 dB 2:24 12-It's A Long Way Back
--------------------------------------------------------------------------------

Number of tracks: 12
Official DR value: DR14

Samplerate: 96000 Hz
Channels: 2
Bits per sample: 24
Bitrate: 2857 kbps
Codec: FLAC
================================================================================
Правила, инструкции, FAQ!!!
Торрент  Добавлен [24 авг 2016, 11:37] Скачать торрент Магнет ссылка
Скачать торрент
[ Размер 14.51 КБ / Просмотров 14 ]

Статус
Проверен 
 
Размер  652.02 МБ
Приватный: Нет (DHT включён)
.torrent скачан  0
 


     Отправить личное сообщение
   
Страница 1 из 1
Показать сообщения за:  Поле сортировки  
Начать новую тему Ответить на тему


Сейчас этот форум просматривают: нет зарегистрированных пользователей и гости: 0


Вы не можете начинать темы
Вы не можете отвечать на сообщения
Вы не можете редактировать свои сообщения
Вы не можете удалять свои сообщения
Вы не можете добавлять вложения

Перейти:  
cron