Начать новую тему Ответить на тему
Статистика раздачи
Размер: 3.56 ГБ | Добавлен: 24 авг 2016, 11:58 | Скачали: 0
Сидеров: 2  [0 байт/сек]    Личеров: 26  [0 байт/сек]
Пред. тема | След. тема 

Автор
Сообщение

СообщениеДобавлено: 24 авг 2016, 11:58 

Ответить с цитатой 

Steve Hillage / Live Herald
Жанр: Psychedelic Rock, Prog Rock
Год выпуска: 1979
Лейбл: Virgin VGD 3502
Страна-производитель: England
Аудио кодек: FLAC
Тип рипа: tracks+.cue
Формат записи: 24/192
Формат раздачи: 24/192
Продолжительность: 41:23 + 45:47
Источник оцифровки: автором раздачи
Код класса состояния винила: VG+
Устройство воспроизведения: ProJect PRM 1./Sumiko Pearl
Предварительный усилитель: Parasound Zphono
АЦП: M-Audio Audiophile 192
Программа-оцифровщик: Sound Forge Pro 10
Обработка: Sound Forge Pro 10
A1 Salmon Song 7:36
A2 The Dervish Riff 4:17
A3a Castle In The Clouds Written-By – Hillage 7:02
A3b Hurdy Gurdy Man Written-By – Donovan

B1 Light In The Sky 5:16
B2 Searching For The Spark 11:11
B3 Electrick Gypsies 5:55

C1a Radiom 15:23
C1b Lunar Music Suite Written-By – Giraudy
C1c Meditation Of The Dragon
C2a It's All Too Much Written-By – Harrison 6:47
C2b The Golden Vibe Written-By – Hillage

Studio Side
D1 Talking To The Sun 5:56
D2 1988 Aktivator 2:30
D3 New Age Synthesis (Unzipping The Zype) 8:47
D4 Healing Feeling 6:09
TITLE "Live Herald"
PERFORMER "Steve Hillage"
FILE "VGD 3502 One+Two.flac" WAVE
TRACK 01 AUDIO
TITLE "Salmon Song"
PERFORMER "Giraudy, Hillage"
INDEX 01 00:00:00
TRACK 02 AUDIO
TITLE "The Dervish Riff"
PERFORMER "Hillage"
INDEX 01 07:40:44
TRACK 03 AUDIO
TITLE "a. Castle In The Clouds, b. Hurdy Gurdy Man"
PERFORMER "a.Hillage, b.Donovan"
INDEX 01 12:10:50
TRACK 04 AUDIO
TITLE "Light In The Sky"
PERFORMER "Giraudy, Hillage"
INDEX 01 19:02:37
TRACK 05 AUDIO
TITLE "Searching For The Spark"
PERFORMER "Giraudy, Hillage"
INDEX 01 24:18:49
TRACK 06 AUDIO
TITLE "Electrick Gypsies"
PERFORMER "Hillage"
INDEX 01 35:26:26
FILE "VGD 3502 Three+Four.flac" WAVE
TRACK 06 AUDIO
TITLE "a. Radiom, b. Lunar Music Suite, c. Meditation Of The Dragon"
PERFORMER "a.Hillage, b.Giraudy, c.Hillage"
INDEX 01 00:00:00
TRACK 07 AUDIO
TITLE "a. It's All Too Much, b. The Golden Vibe"
PERFORMER "a.Harrison, b.Hillage"
INDEX 01 15:20:18
TRACK 08 AUDIO
TITLE "Talking To The Sun"
PERFORMER "Giraudy, Hillage"
INDEX 01 22:33:41
TRACK 09 AUDIO
TITLE "1988 Aktivator"
PERFORMER "Hillage"
INDEX 01 28:29:19
TRACK 10 AUDIO
TITLE "New Age Synthesis (Unzipping The Zype)"
PERFORMER "Anderson, McKenzie, Giraudy, Hillage"
INDEX 01 30:56:37
TRACK 11 AUDIO
TITLE "Healing Feeling"
PERFORMER "Giraudy, Hillage"
INDEX 01 39:40:09
Disk 1

Disk 2
A2. The Dervish Riff & D1. Talking To The Sun


Artwork By [Colour Prints] – Robin At Maintide
Artwork By [Sleeve Design] – Hipgnosis
Bass – Curtis Robertson (tracks: B3)
Bass, Vocals – Colin Bass (tracks: A1 to A3, C1), John McKenzie (tracks: B1, B2, C2 to D4)
Drums – Clive Bunker (tracks: A1 to A3, C1)
Drums, Percussion – Andy Anderson (tracks: B1, B2, C2 to D4)
Drums, Vocals – Joe Blocker (tracks: B3)
Engineer – Jeremy Allom (tracks: B2), Malcolm Heeley (tracks: B1, C2), Phil Newell (tracks: B3), Simon Fraser (tracks: D1 to D4), Trevor White (tracks: A1 to A3, C1)
Engineer [Remix] – Simon Fraser (tracks: A1 to C2)
Guitar [Lead, Glissando], Synthesizer, Vocals, Sequenced By – Steve Hillage
Guitar [Rhythm, Glissando] – Christian Boulé (tracks: A1 to B2, C1, C2)
Keyboards – Phil Hodge (tracks: A1 to A3, C1)
Photography – Hipgnosis / Brimson
Photography [Group Photos] – Chuck Pulin, Ian Dickson, Jerry Levy, Murray Close, Rod Lynton
Producer – Steve Hillage
Synthesizer, Sequenced By, Flute – Basil Brooks (tracks: A1 to A3, C1)
Synthesizer, Vocals, Bells, Sequenced By, Guitar [Glissando] – Miquette Giraudy
Written-By – Anderson* (tracks: D3), McKenzie* (tracks: D3), Giraudy* (tracks: A1, B1, B2, D1, D3, D4), Hillage* (tracks: A1, A2, B1 to B3, C1, D1 to D4)

Tracks A1 to A3, C1 recorded live at The Rainbow Theatre, London, March 26th, 1977.
Tracks B1, C2 recorded live at Oxford Polytechnic, May 25th, 1978.
Track B2 recorded live at The Marquee Club, London, August 7th, 1978.
Track B3 recorded live at The Rainbow Theatre, London, November 3rd, 1977.

In Groups:

777, Arzachel, Clearlight, Gong, Groovy Intent, Khan (3), Loophead, Mirror System, Nik Turner's Sphynx, Paragong, Retribution, Steve Hillage Band, System 7

Stephen Simpson Hillage
Британский гитарист родился 2 августа 1951 г. Лондон, Англия. Ранее член прог-рок действовать Гун, но наиболее известный как половина эмбиент / техно-дуэта System 7 и как часто сотрудничал с The Orb. Он начал с группы Уриэль затем уехал в колледж, и они продолжали, как яйцо. Они воссоединились для записи под псевдонимом Арзакел, то Hillage закончил с Кевин Айерс, затем в Гонг, где он подобрал на глиссандо методы Daevid Аллена гитаре, что Аллен эволюционировал от просмотра Сида Барретта играть с маслом ножом поклонившись строк. Hillage стал виртуозом и гитарный звук развивались вместе с эхо и реверберации смешивания с синтезаторами. У него был сольный после Гун и сделал некоторые сессии работы, и был пионером в новой эпохе эмбиента и удалился от записи какое-то время, как он продолжал быть видным производителем в начале 1980-х, наиболее известный по своей работе на Простые альбомы умы той эпохи. Несколько лет спустя он был в клубе и услышал Orb выборки его музыку и познакомился с ними, и всплыли с его дуэт со своим давним партнером записать в качестве System 7, больше известный как 777 из-за опасений от компании Apple над своей операционной системы 7. Он воссоединился с Гонг около 2008 года и гастролировал с ним в 2009 году и предстоящих чернила 2010 года.
Правила, инструкции, FAQ!!!
Торрент  Добавлен [24 авг 2016, 11:58] Скачать торрент Магнет ссылка
Скачать торрент
[ Размер 19.03 КБ / Просмотров 8 ]

Статус
Проверен 
 
Размер  3.56 ГБ
Приватный: Нет (DHT включён)
.torrent скачан  0
 


     Отправить личное сообщение
   
Страница 1 из 1
Показать сообщения за:  Поле сортировки  
Начать новую тему Ответить на тему


Сейчас этот форум просматривают: нет зарегистрированных пользователей и гости: 0


Вы не можете начинать темы
Вы не можете отвечать на сообщения
Вы не можете редактировать свои сообщения
Вы не можете удалять свои сообщения
Вы не можете добавлять вложения

Перейти:  
cron