Начать новую тему Ответить на тему
Статистика раздачи
Размер: 665.61 МБ | Добавлен: 24 авг 2016, 11:55 | Скачали: 2
Сидеров: 5  [0 байт/сек]    Личеров: 1  [0 байт/сек]
Пред. тема | След. тема 

Автор
Сообщение

СообщениеДобавлено: 24 авг 2016, 11:55 

Ответить с цитатой 

Moby Grape - Great Grape

Жанр: Psychedelic Rock
Носитель: LP
Год выпуска: 1974
Лейбл: Columbia/C 31098
Страна-производитель: US
Аудио кодек: FLAC
Тип рипа: tracks+.cue
Формат записи: 24/96
Формат раздачи: 24/96
Продолжительность: 00:28:14
Треклист:
A1 Omaha 2:22
A2 Murder In My Heart For The Judge 2:57
A3 Bitter Wind 3:04
A4 It's A Beautiful Day Today 3:06
A5 Changes 3:21

B1 Motorcycle Irene 2:23
B2 Trucking Man 2:00
B3 Someday 2:39
B4 8:05 2:19
B5 Ooh Mama Ooh 2:25
B6 Naked If I Want To 0:55

Источник оцифровки: LP Rip & Full Scan LP Cover: Fran Solo
Код класса состояния винила: не указано
Подготовка: RCM Moth MkII Pro Vinyl
Устройство воспроизведения: Marantz 6170
Головка звукоснимателя: SHURE M97xE
Предварительный усилитель: Sansui 9090DB
АЦП: E-MU 0404
Программа-оцифровщик: XLD
Обработка: не указано
Спектры, графики и одноминутные семплы: первый и последний треки стороны А
----------------------------------------------------------------------------------------------
Analyzed folder: /Moby Grape - Great Grape (LP)
----------------------------------------------------------------------------------------------
DR Peak RMS Filename
----------------------------------------------------------------------------------------------

DR11 -0.02 dB -13.10 dB 01 Moby Grape - LADO 1- Omaha.wav
DR11 -0.01 dB -13.28 dB 02 Moby Grape - Murder In My Heart For The Judge.wav
DR11 -0.24 dB -15.58 dB 03 Moby Grape - Bitter Wind.wav
DR9 -0.62 dB -12.04 dB 04 Moby Grape - It's A Beautiful Day Today.wav
DR11 -0.23 dB -12.97 dB 05 Moby Grape - Changes.wav
DR12 -0.01 dB -14.59 dB 06 Moby Grape - LADO 2- Motorcycle Irene.wav
DR11 -0.80 dB -14.15 dB 07 Moby Grape - Trucking Man.wav
DR12 -0.10 dB -14.39 dB 08 Moby Grape - Someday.wav
DR11 -0.22 dB -13.57 dB 09 Moby Grape - 8;05.wav
DR11 -0.15 dB -14.02 dB 10 Moby Grape - Ooh Mama Ooh.wav
DR10 -0.07 dB -13.36 dB 11 Moby Grape - Naked If I Want To.wav
----------------------------------------------------------------------------------------------

Number of files: 11
Official DR value: DR11

==============================================================================================
#777#777#777
Bass, Vocals – Bob Mosely
Directed By – Matthew Katz (tracks: A1 to A3, A5, B1, B3, B4, B6)
Drums – Don Stevenson
Guitar, Drums – Skip Spence
Lead Guitar – Jerry Miller
Liner Notes – Bil Keane
Producer – David Rubinson
Vocals – Peter Lewis
Notes
Manufactured by Columbia Records/CBS, Inc. New York.
Printed in U.S.A. (backcover).
Barcode and Other Identifiers
Matrix / Runout (Run-out area A-side, machine stamped): AL-31098-1C
Matrix / Runout (Run-out area B-side, machine stamped): BL-31098-1D
Matrix / Runout (Center label A-side): AL 31098
Matrix / Runout (Center label B-side): BL 31098
“ One of the best '60s San Francisco bands, Moby Grape were also one of the most versatile. Although they are most often identified with the psychedelic scene, their specialty was combining all sorts of roots music -- folk, blues, country, and classic rock & roll -- with some Summer of Love vibes and multi-layered, triple-guitar arrangements.
All of those elements only truly coalesced, however, for their 1967 debut LP. Although subsequent albums had more good moments than many listeners are aware of, a combination of personal problems and bad management effectively killed off the group by the end of the 1960s.
allmusic.com

Great Grape is a compilation album released by Columbia Records in 1972 that compiles songs from three of Moby Grape's Columbia albums - Moby Grape, Wow, and Moby Grape '69. It has been speculated that Columbia's decision to release this album was based solely on trying to capitalize on any interest generated in Moby Grape by the then-recent release of a new studio album, 20 Granite Creek, on Reprise Records.
wikipedia.org ”
Правила, инструкции, FAQ!!!
Торрент  Добавлен [24 авг 2016, 11:55] Скачать торрент Магнет ссылка
Скачать торрент
[ Размер 14.5 КБ / Просмотров 8 ]

Статус
Проверен 
 
Размер  665.61 МБ
Приватный: Нет (DHT включён)
.torrent скачан  2
 


     Отправить личное сообщение
   
Страница 1 из 1
Показать сообщения за:  Поле сортировки  
Начать новую тему Ответить на тему


Сейчас этот форум просматривают: нет зарегистрированных пользователей и гости: 0


Вы не можете начинать темы
Вы не можете отвечать на сообщения
Вы не можете редактировать свои сообщения
Вы не можете удалять свои сообщения
Вы не можете добавлять вложения

Перейти:  
cron