Начать новую тему Ответить на тему
Статистика раздачи
Размер: 264.93 МБ | Добавлен: 25 май 2020, 00:06 | Скачали: 0
Сидеров: 66  [0 байт/сек]    Личеров: 22  [0 байт/сек]
Пред. тема | След. тема 

Автор
Сообщение

СообщениеДобавлено: 25 май 2020, 00:06 

Ответить с цитатой 

First Mountain / T-Minus; Your Highness
Жанр: Psychedelic/Prog/Jazz/Fusion
Носитель: WEB
Год издания: 2020
Страна исполнителя (группы): USA
Аудиокодек: FLAC (*.flac)
Тип рипа: tracks
Продолжительность: 37:34
Источник: собственная покупка
Наличие сканов в содержимом раздачи: нет

01. Little Lamb [00:06:10]
02. Lucifer's Hex-Annual Picnic [00:07:34]
03. Horseneck Cheeseburger [00:01:55]
04. Banana Pop [00:06:21]
05. Dynynytyzmz [00:04:57]
06. Globbers Incorporated [00:03:33]
07. Who D'Snakey? [00:07:01]
Released April 20, 2020
Код:
-----------------------
DON'T MODIFY THIS FILE
-----------------------
PERFORMER: auCDtect Task Manager, ver. 1.6.0 RC1 build 1.6.0.1
Copyright (c) 2008-2010 y-soft. All rights reserved
[url=http://y-soft.org]http://y-soft.org[/url]
ANALYZER: auCDtect: CD records authenticity detector, version 0.8.2
Copyright (c) 2004 Oleg Berngardt. All rights reserved.
Copyright (c) 2004 Alexander Djourik. All rights reserved.
FILE: First Mountain - T-Minus; Your Highness - 07 Who D'Snakey-.flac
  Size: 51462919 Hash: 87410FBA763FA721471291B89654D035 Accuracy: -m0
  Conclusion: CDDA 100%
  Signature: 660217EA26329D6C71BCC13A061B7A7B3C4E77BA
FILE: First Mountain - T-Minus; Your Highness - 06 Globbers Incorporated.flac
  Size: 25617346 Hash: 531D0C246C2C5703231E866A8EFCA8D2 Accuracy: -m0
  Conclusion: CDDA 100%
  Signature: DEAF92D425FA601EF15826D5800CDFB69E6E3362
FILE: First Mountain - T-Minus; Your Highness - 05 Dynynytyzmz.flac
  Size: 36391795 Hash: 90BD1218692606D683AB64C43A07524D Accuracy: -m0
  Conclusion: CDDA 100%
  Signature: 24FACEDA26210292512F485B4ADCC2A398EC1F8A
FILE: First Mountain - T-Minus; Your Highness - 04 Banana Pop.flac
  Size: 42399077 Hash: 55670347C755EE83318A65C3A378F2C9 Accuracy: -m0
  Conclusion: CDDA 100%
  Signature: 28574E4099A8AABFCBEFC5580AD94E91A84B2D47
FILE: First Mountain - T-Minus; Your Highness - 03 Horseneck Cheeseburger.flac
  Size: 13996486 Hash: D145BC4726FE383AB5AF0CA855E078AD Accuracy: -m0
  Conclusion: CDDA 99%
  Signature: C4CB59095C8CF603321B64E108943AEF94F82E06
FILE: First Mountain - T-Minus; Your Highness - 02 Lucifer's Hex-Annual Picnic.flac
  Size: 54089184 Hash: C92F3A2E4503DC310693F225D7B3FF57 Accuracy: -m0
  Conclusion: CDDA 100%
  Signature: E9FE4AFBF1D1E1B71BE1EEF37603364D6FF0466E
FILE: First Mountain - T-Minus; Your Highness - 01 Little Lamb.flac
  Size: 43545786 Hash: 57D5BAD5EDE0D397E98D2AA16FDFA23E Accuracy: -m0
  Conclusion: CDDA 100%
  Signature: CDB162B87B30A2B6CC5758CF4A64F33D29170315
Код:
foobar2000 1.3.12 / Dynamic Range Meter 1.1.1
log date: 2020-05-24 16:46:28
--------------------------------------------------------------------------------
Analyzed: First Mountain / T-Minus; Your Highness
--------------------------------------------------------------------------------
DR         Peak         RMS     Duration Track
--------------------------------------------------------------------------------
DR9       -0.26 dB   -10.39 dB      6:11 01-Little Lamb
DR8       -0.26 dB    -9.63 dB      7:34 02-Lucifer's Hex-Annual Picnic
DR9       -0.26 dB   -10.21 dB      1:56 03-Horseneck Cheeseburger
DR9       -0.21 dB    -9.65 dB      6:22 04-Banana Pop
DR8       -0.26 dB    -9.25 dB      4:58 05-Dynynytyzmz
DR8       -0.21 dB    -9.39 dB      3:34 06-Globbers Incorporated
DR9       -0.21 dB   -10.07 dB      7:01 07-Who D'Snakey?
--------------------------------------------------------------------------------
Number of tracks:  7
Official DR value: DR9
Samplerate:        44100 Hz
Channels:          2
Bits per sample:   16
Bitrate:           974 kbps
Codec:             FLAC
================================================================================
Правила, инструкции, FAQ!!!
Торрент  Добавлен [25 май 2020, 00:06] Скачать торрент Магнет ссылка
Скачать торрент
[ Размер 11.3 КБ / Просмотров 3 ]

Статус
Проверен 
 
Размер  264.93 МБ
Приватный: Нет (DHT включён)
.torrent скачан  0
 


     Отправить личное сообщение
   
Страница 1 из 1
Показать сообщения за:  Поле сортировки  
Начать новую тему Ответить на тему


Сейчас этот форум просматривают: нет зарегистрированных пользователей и гости: 0


Вы не можете начинать темы
Вы не можете отвечать на сообщения
Вы не можете редактировать свои сообщения
Вы не можете удалять свои сообщения
Вы не можете добавлять вложения

Перейти:  
cron