Начать новую тему Ответить на тему
Статистика раздачи
Размер: 1.59 ГБ | Добавлен: 24 авг 2016, 11:44 | Скачали: 0
Сидеров: 9  [0 байт/сек]    Личеров: 4  [0 байт/сек]
Пред. тема | След. тема 

Автор
Сообщение

СообщениеДобавлено: 24 авг 2016, 11:44 

Ответить с цитатой 

Yes - Tales From Topographic Oceans
Жанр: Progressive Rock
Год выпуска диска: 1973 / 2010
Источник: [LP] Стерео
Производитель диска: UK
Лейбл: Atlantic/WEA Records Ltd K80001
Аудио кодек: FLAC
Тип рипа: tracks
Битрейт аудио: 2642-2783 kbps
Продолжительность: 01:22:03
Информация об источнике: Скачано с Авакса.Релизёр Dr.Robert

Треклист:
01. The Revealing Science of God (Dance of the Dawn) [00:20:38]
02. The Remembering (High the Memory) [00:20:47]
03. The Ancient (Giants Under the Sun) [00:18:43]
04. Ritual (Nous sommes du soleil) [00:21:53]

All music composed by Anderson/Howe/Squire/Wakeman/White.

Personnel
* Jon Anderson - Lead Vocals, Timpani, Harp, Tambourine
* Steve Howe - Guitars, Timpani, Vocals
* Chris Squire - Bass, Timpani, Vocals
* Rick Wakeman - Mellotron, Mini-Moog, Organ, Piano
* Alan White - Drums, Percussion
Моечная машинах: Nitty Gritty RCM 1.5
Устройство воспроизведения: Technics SL-1200MK2 DD Turntable
with KAB Fluid Damping and KAB record grip
Ortofon 2M Black MM Cartridge
Предварительный усилитель: Pro-ject Tube Box SE II Preamp
АЦП: Tascam US-144 external USB 2.0 Audiointerface
Компьютер: Mac Pro Dual Zeon 2.66 GHz
Программа-оцифровщик:Bias Peak LE 6.2 recording software
Обработка: Click Repair 3.4.1 for de-click (manual mode only)
XLD Version 20100908 (121.2) for FLAC conversion
Не использовалось шумо понижение.Сохранены оригинальные паузы.
Формат записи и Формат раздачи: 24/96
The Revealing Science of God (Dance of the Dawn)
The Revealing Science of God (Dance of the Dawn)
The Revealing Science of God (Dance of the Dawn)
Код:
--------------------------------------------------------------------------------
Analyzed: Yes / Tales From Topographic Oceans (UK LP)
--------------------------------------------------------------------------------

DR         Peak         RMS     Duration Track
--------------------------------------------------------------------------------
DR12      -0.68 dB   -17.01 dB  20:38    01-The Revealing Science of God (Dance of the Dawn)
DR11      -0.98 dB   -17.02 dB  20:47    02-The Remembering (High the Memory)
DR12      -0.53 dB   -17.96 dB  18:43    03-The Ancient (Giants Under the Sun)
DR12      -0.54 dB   -16.68 dB  21:53    04-Ritual (Nous sommes du soleil)
--------------------------------------------------------------------------------

Number of tracks: 4
Maximum peak difference (-0.53 dB - -0.98 dB): 0.45 dB

Official DR value (Song Mode): DR12
================================================================================
Правила, инструкции, FAQ!!!
Торрент  Добавлен [24 авг 2016, 11:44] Скачать торрент Магнет ссылка
Скачать торрент
[ Размер 17.31 КБ / Просмотров 31 ]

Статус
Проверен 
 
Размер  1.59 ГБ
Приватный: Нет (DHT включён)
.torrent скачан  0
 


     Отправить личное сообщение
   
Страница 1 из 1
Показать сообщения за:  Поле сортировки  
Начать новую тему Ответить на тему


Сейчас этот форум просматривают: нет зарегистрированных пользователей и гости: 0


Вы не можете начинать темы
Вы не можете отвечать на сообщения
Вы не можете редактировать свои сообщения
Вы не можете удалять свои сообщения
Вы не можете добавлять вложения

Перейти:  
cron