Начать новую тему Ответить на тему
Статистика раздачи
Размер: 2.49 ГБ | Добавлен: 24 авг 2016, 12:18 | Скачали: 0
Сидеров: 4  [0 байт/сек]    Личеров: 1  [0 байт/сек]
Пред. тема | След. тема 

Автор
Сообщение

СообщениеДобавлено: 24 авг 2016, 12:18 

Ответить с цитатой 

Freedoms Children - 3 LP Shadoks Box

Жанр: Progressive-Rock, Psychedelic-Rock
Носитель: LP
Год выпуска: Issue: 2007 (1968, 1970, 1971)
Лейбл: Shadoks Music
Страна-производитель: DE 180g Pressing
Аудио кодек: FLAC
Тип рипа: tracks+.cue
Формат записи: 24/96
Формат раздачи: 24/96
Продолжительность: 01:57:54
Источник оцифровки: LP Rip & Full Scan LP Cover: Fran Solo
Код класса состояния винила: Mint/Mint/Mint
Устройство воспроизведения: Marantz 6170
Головка звукоснимателя: SHURE M97xE With JICO SAS Stylus
Предварительный усилитель: Sansui 9090DB
АЦП: E-MU 0404
Программа-оцифровщик: iZotope RX3
Обработка: ClickRepair: Only Manual (Click per click)
#777Год выпуска: 1968
Лейбл: Shadoks Music/SHADOKS 101 - DE 180g Pressing
Продолжительность: 00:36:52
Треклист:
A1 Introduction
A2 Season
A3 Judas Queen
A4 Mrs. Browning
A5 Country Boy
A6 Your Father's Eyes

B1 Eclipse
B2 10 Years Ago
B3 Kafkasque
B4 Boundsgreen Fair
B5 Miss Wendy's Dancing Eyes Have Died
----------------------------------------------------------------------------------------------
Analyzed folder: /Freedoms Children - Battle Hymn Of The Broken Hearted Horde (LP)
----------------------------------------------------------------------------------------------
DR Peak RMS Filename
----------------------------------------------------------------------------------------------

DR14 -0.38 dB -20.11 dB 01 Freedoms Children - LADO 1- Introduction.wav
DR14 -1.61 dB -17.53 dB 02 Freedoms Children - Season.wav
DR11 -0.78 dB -14.07 dB 03 Freedoms Children - Judas Queen.wav
DR12 -1.81 dB -15.92 dB 04 Freedoms Children - Mrs. Browning.wav
DR13 -1.86 dB -17.19 dB 05 Freedoms Children - Country Boy.wav
DR13 -3.53 dB -18.95 dB 06 Freedoms Children - Your Fathers' Eyes.wav
DR10 -0.12 dB -12.85 dB 07 Freedoms Children - LADO 2- Eclipse.wav
DR14 -1.63 dB -17.68 dB 08 Freedoms Children - 10 Years Ago.wav
DR12 -2.12 dB -16.09 dB 09 Freedoms Children - Kafkasque.wav
DR14 -3.42 dB -20.76 dB 10 Freedoms Children - Boundsgreen Fair.wav
DR12 -2.18 dB -18.89 dB 11 Freedoms Children - Miss Wendy's Dancing Eyes Have Died.wav
----------------------------------------------------------------------------------------------

Number of files: 11
Official DR value: DR13

==============================================================================================
Bass, Vocals, Narrator – Ramsay MacKay
Drums – Colin Pratley
Guitar – Julian Laxton, Pete Clifford
Keyboards – Harry Poulos (tracks: B1, B3), Nic Martens
Vocals – Dennis Robertson (2), Peter Vee, Steve Trend, Stevie van Kerken
Written-By – Ramsay MacKay
Notes
A concept suite in two movements (one per album side).
Dedicated to the girl from Boundsgreen Fair.
#777#777#777#777
#777Год выпуска: 1970
Лейбл: Shadoks Music/SHADOKS 100 - DE 180g Pressing
Продолжительность: 00:40:16
Треклист:

A1 Aileen
A2 The Homecoming
A3 The Kid He Came From Hazareth
A4 Medals For Bravery

B1 Tribal Fence
B2 Gentle Beasts (Parts 1 & 2)
B3 Slowly Towards The North (Parts 1 & 2)
B4 Afterward
----------------------------------------------------------------------------------------------
Analyzed folder: /Freedoms Children - Astra (LP)
----------------------------------------------------------------------------------------------
DR Peak RMS Filename
----------------------------------------------------------------------------------------------

DR10 -1.35 dB -13.54 dB 01 Freedoms Children - LADO 1- Aileen.wav
DR10 -0.79 dB -12.47 dB 02 Freedoms Children - The Homecoming.wav
DR11 -0.12 dB -12.63 dB 03 Freedoms Children - The Kid He Came From Hazareth.wav
DR12 -1.29 dB -15.95 dB 04 Freedoms Children - Medals For Bravery.wav
DR11 -1.38 dB -14.54 dB 05 Freedoms Children - LADO 2- Tribal Fence.wav
DR11 -1.78 dB -15.57 dB 06 Freedoms Children - Gentle Beasts (Parts 1 & 2).wav
DR11 -1.43 dB -14.51 dB 07 Freedoms Children - Slowly Towards The North (Parts 1 & 2).wav
DR11 -1.65 dB -14.58 dB 08 Freedoms Children - Afterward.wav
----------------------------------------------------------------------------------------------

Number of files: 8
Official DR value: DR11

==============================================================================================
Artwork [Cover Concept] – Ramsay MacKay
Bass – Ramsay MacKay
Drums, Percussion – Colin Pratley
Electronics – Julian Laxton
Engineer – Nicolas Martens*
Guitar – Julian Laxton
Music By, Words By – Ramsay MacKay
Organ – Nic Martens
Photography By [Cover And Design] – Creative Photography
Piano, Harpsichord, Bells – Gerard Nel
Producer – Clive Calder, Freedom's Children
Vocals – Brian Davidson (2)
Notes
Neville and Justine: bearers of eastern gifts.
#777#777#777#777
#777Год выпуска: 1971
Лейбл: Shadoks Music/SHADOKS 102 - DE 180g Pressing
Продолжительность: 00:40:45
Треклист:

A1 Sea Horse
A2 The Homecoming (Live)

B1 That Did It
B2 Fields And Me
B3 The Crazy World Of Pod
B4 1999
B5 About The Dove And His Ri
----------------------------------------------------------------------------------------------
Analyzed folder: /Freedoms Children - Galactic Vibes (LP)
----------------------------------------------------------------------------------------------
DR Peak RMS Filename
----------------------------------------------------------------------------------------------

DR12 -0.12 dB -13.53 dB 01 Freedoms Children - LADO 1- Sea Horse.wav
DR12 -0.69 dB -14.92 dB 02 Freedoms Children - The Homecoming (Live).wav
DR12 -1.33 dB -14.29 dB 03 Freedoms Children - LADO 2- That Did It.wav
DR12 -2.47 dB -17.50 dB 04 Freedoms Children - Fields And Me.wav
DR12 -1.50 dB -16.12 dB 05 Freedoms Children - The Crazy World Of Pod.wav
DR12 -0.67 dB -14.48 dB 06 Freedoms Children - 1999.wav
DR13 -2.95 dB -18.84 dB 07 Freedoms Children - About The Dove And His Ring.wav
----------------------------------------------------------------------------------------------

Number of files: 7
Official DR value: DR12

==============================================================================================
- Julian Laxton / guitars
- Ramsay MacKay / bass
- Gerard Nel / keyboards
- Nic Martens / Organ
- Brian Davidson / vocals
- Colin Pratley / drums
#777#777#777#777
Freedom's Children biography
This band reflects a tiny but fascinating and oft-forgotten scene of South African progressive rock, regularly omitted from prog annals and denied their part in music history. But in their time, FREEDOM'S CHILDREN were no less innovative than ATOMIC ROOSTER, EGG or COLOSSEUM and their 1970 release "Astra" was an extremely important if completely missed record. Luckily it was re-issued in 1990 and again several times. The original band included Julian Laxton's lead guitar (and inventor of his 'black box', a much mythologized sound-producing device), Nic Martens on organ, bassist/lyricist Ramsay MacKay, Brian Davidson's voice, drummer Colin Pratley, Harry Poulos on organ and vocals and Gerard Nel's piano. Many well-known musicians have played in the band over the years including Trevor Rabin, Mick Jade and Ken E. Henson.
Unable to legally work in certain places due to issues surrounding Apartheid, the band found it difficult to break through, especially outside their country but continued making strides in the 1970s. Undoubtedly their most important work and finest effort is "Astra", a spicy and exciting blend of heavy prog with plenty of psych and blues. The disc has been re-released as many as six times in varying degrees of quality, the last in 2004.

FREEDOM"S CHILDREN is one of the best of the hard-edged prog bands and a jewel in the South African prog crown, and is highly recommended to fans of the earlier, more intense heavy art bands.

Atavachron (David), progarchives.com
=====================================================================================================================================================
Много ли вы, друзья, знаете артистов из ЮАР? Да и вообще из Африки. Я на память почти никого вспомнить не смог и обратился к своему аккаунту на Rateyourmusic, благо не так давно всем имеющимся у меня альбомам я проставил подробные тэги (год выпуска, страна артиста, жанры). И Rateyourmusic напомнил мне, что из ЮАР я знаю только группу Seether. Ну ещё что Манфред Манн оттуда родом. Ну и, собственно, героев этого поста.

"Широко известные в узких кругах" - это как раз о Freedoms Children (кстати, я так до конца и не знаю, как правильно писать название - с апострофом или без него, встречаются оба варианта). Знакомые с творчеством этого коллектива считают его одним из лучших коллективов своего времени. Работавшие с группой люди считают, что если бы артистам удалось выйти на международный рынок, они бы прославились на весь мир. Но не сложилось. В ЮАР в те годы как раз царил режим апартеида.

Впрочем, в самой ЮАР группа весьма известна и любима, что уже немало. Записав три альбома, "Дети свободы" распались в 1972 году. Затем были различные частичные реюнионы, однако всё без человека № 1 в группе - Рамзи Макки, основного автора песен.
Окончательные надежды на полноценный реюнион рассыпались после смерти (при весьма таинственных обстоятельствах) вокалиста коллектива Брайана Дэвидсона.

"Astra" - второй и лучший альбом группы. Есть мнения, что он - концептуальный и посвящён фигуре Иисуса Христа (особенно на это наводит название одной из песен - "The Kid Came From Hazareth"). Однако сам Макки рассеял все эти догадки - нет у альбома такой концепции.
Что "цепляет" - так это звучание. Полоажа руку на сердце, я не могу сходу назвать второй пластинки с таким же "пещерным" звуком. Отменная психоделия, записанная уже на излёте эры этой музыки.

Легендарная псих/прог-группа из Южной Африки со своим редким выдающимся альбомом "Astra" 1970 г.
Те же, кому еще предстоит познать радость знакомства с этой группой, будут просто в восторге!

(С) nameless
Правила, инструкции, FAQ!!!
Торрент  Добавлен [24 авг 2016, 12:18] Скачать торрент Магнет ссылка
Скачать торрент
[ Размер 16.9 КБ / Просмотров 19 ]

Статус
Проверен 
 
Размер  2.49 ГБ
Приватный: Нет (DHT включён)
.torrent скачан  0
 


     Отправить личное сообщение
   
Страница 1 из 1
Показать сообщения за:  Поле сортировки  
Начать новую тему Ответить на тему


Сейчас этот форум просматривают: нет зарегистрированных пользователей и гости: 0


Вы не можете начинать темы
Вы не можете отвечать на сообщения
Вы не можете редактировать свои сообщения
Вы не можете удалять свои сообщения
Вы не можете добавлять вложения

Перейти:  
cron
cron