Начать новую тему Ответить на тему
Статистика раздачи
Размер: 2.42 ГБ | Добавлен: 24 авг 2016, 11:31 | Скачали: 0
Сидеров: 1  [0 байт/сек]    Личеров: 0  [0 байт/сек]
Пред. тема | След. тема 

Автор
Сообщение

СообщениеДобавлено: 24 авг 2016, 11:31 

Ответить с цитатой 

Peter Gabriel - Plays Live

Жанр: Progressive Rock
Год выпуска: 1983
Лейбл: Charisma, Phonogram - 812 445-1
Страна-производитель: Western Germany
Аудио кодек: WavPack
Тип рипа: image+.cue
Формат записи: 32 float/96
Формат раздачи: 32 float/96
Продолжительность: 01:30:09

Треклист:
01. The Rhythm Of The Heat
02. I Have The Touch
03. Not One Of Us
04. Family Snapshot
05. D.I.Y.
06. The Family And The Fishing Net
07. Intruder
08. I Go Swimming
09. San Jacinto
10. Solsbury Hill
11. No Self Control
12. I Don't Remember
13. Shock The Monkey
14. Humdrum
15. On The Air
16. Biko

Источник оцифровки: автором раздачи
Код класса состояния винила: NM
Устройство воспроизведения: Электроника ЭП-017С
Головка звукоснимателя: Audio-Technica AT440MLa
Предварительный усилитель: Самодельный ламповый v1.91
АЦП: ESI Julia
Программа-оцифровщик: Steinberg WaveLab 6.1
Обработка: ручное удаление щелчков в iZotope
foobar2000 1.2.2 / Dynamic Range Meter 1.1.1
log date: 2013-03-13 16:26:23

--------------------------------------------------------------------------------
Analyzed: Peter Gabriel / Plays Live
--------------------------------------------------------------------------------

DR Peak RMS Duration Track
--------------------------------------------------------------------------------
DR13 -2.50 dB -20.34 dB 6:27 ?-The Rhythm Of The Heat
DR14 -3.14 dB -19.54 dB 4:52 ?-I Have The Touch
DR15 -2.88 dB -20.54 dB 5:41 ?-Not One Of Us
DR15 -4.27 dB -23.84 dB 5:04 ?-Family Snapshot
DR16 -0.13 dB -18.21 dB 4:10 ?-D.I.Y.
DR14 -3.44 dB -21.86 dB 7:34 ?-The Family And The Fishing Net
DR14 -3.18 dB -19.05 dB 4:43 ?-Intruder
DR12 -3.10 dB -18.22 dB 5:08 ?-I Go Swimming
DR13 -4.61 dB -21.68 dB 8:27 ?-San Jacinto
DR14 -2.89 dB -19.76 dB 4:39 ?-Solsbury Hill
DR15 -2.23 dB -22.70 dB 5:07 ?-No Self Control
DR14 -3.59 dB -20.20 dB 4:22 ?-I Don't Remember
DR15 -0.99 dB -20.32 dB 7:19 ?-Shock The Monkey
DR15 -2.34 dB -22.97 dB 4:24 ?-Humdrum
DR13 -3.67 dB -19.38 dB 5:22 ?-On The Air
DR14 -4.61 dB -21.69 dB 6:51 ?-Biko
--------------------------------------------------------------------------------

Number of tracks: 16
Official DR value: DR14

Samplerate: 96000 Hz
Channels: 2
Bits per sample: 32
Bitrate: 3739 kbps
Codec: WavPack
~Vinylrip by nickhome (plastinka)
~Scans and images by plastinka team
© plastinka.org team, 2013
Правила, инструкции, FAQ!!!
Торрент  Добавлен [24 авг 2016, 11:31] Скачать торрент Магнет ссылка
Скачать торрент
[ Размер 13.68 КБ / Просмотров 11 ]

Статус
Проверен 
 
Размер  2.42 ГБ
Приватный: Нет (DHT включён)
.torrent скачан  0
 


     Отправить личное сообщение
   
Страница 1 из 1
Показать сообщения за:  Поле сортировки  
Начать новую тему Ответить на тему


Сейчас этот форум просматривают: нет зарегистрированных пользователей и гости: 0


Вы не можете начинать темы
Вы не можете отвечать на сообщения
Вы не можете редактировать свои сообщения
Вы не можете удалять свои сообщения
Вы не можете добавлять вложения

Перейти:  
cron
cron