Начать новую тему Ответить на тему
Статистика раздачи
Размер: 873.32 МБ | Добавлен: 24 авг 2016, 12:09 | Скачали: 0
Сидеров: 4  [0 байт/сек]    Личеров: 1  [0 байт/сек]
Пред. тема | След. тема 

Автор
Сообщение

СообщениеДобавлено: 24 авг 2016, 12:09 

Ответить с цитатой 

King Crimson - In The Wake Of Poseidon

Жанр: Progressive-Rock
Носитель: LP
Год выпуска: 1970 (Reissue 1975)
Лейбл: Atlantic/SD 8266 (ST)
Страна-производитель: US
Аудио кодек: FLAC
Тип рипа: tracks+.cue
Формат записи: 24/96
Формат раздачи: 24/96
Продолжительность: 42:16
Треклист:
A1 Peace - The Beginning
A2 Pictures Of A City including 42nd At Treadmill
A3 Cadence And Cascade
A4 In The Wake Of Poseidon including Libra's Theme

B1 Peace - A Theme
B2 Cat Food
The Devil's Triangle
B3a The Devil's Triangle
B3b Merday Morn
B3c Hand Of Sceiron
B3d Garden Of Worm
B4 Peace - An End

Источник оцифровки: LP Rip & Full Scan LP Cover: Fran Solo
Код класса состояния винила: NM
Устройство воспроизведения: Technics SL-1200MK2 Quartz
Головка звукоснимателя: SHURE M97xE With JICO SAS Stylus
Предварительный усилитель: Marantz 2252
АЦП: E-MU 0404
Обработка: DeClick with iZotope RX5: Only Manual (Click per click)
Любой трек
----------------------------------------------------------------------------------------------
Analyzed folder: /In The Wake Of Poseidon (LP)
----------------------------------------------------------------------------------------------
DR Peak RMS Filename
----------------------------------------------------------------------------------------------

DR9 -14.57 dB -26.73 dB 01 King Crimson - LADO 1- Peace - The Beginning.wav
DR11 -0.22 dB -14.35 dB 02 King Crimson - Pictures Of A City including 42nd At Treadmill.wav
DR13 -4.88 dB -20.22 dB 03 King Crimson - Cadence And Cascade.wav
DR11 -1.63 dB -15.83 dB 04 King Crimson - In The Wake Of Poseidon including Libra's Theme.wav
DR11 -12.31 dB -25.93 dB 05 King Crimson - LADO 2- Peace - A Theme.wav
DR14 -0.37 dB -18.28 dB 06 King Crimson - Cat Food.wav
DR11 -1.45 dB -15.60 dB 07 King Crimson - The Devil's Triangle (4 Parts).wav
DR15 -8.23 dB -27.09 dB 08 King Crimson - LADO 2- Peace - A Theme.wav
----------------------------------------------------------------------------------------------

Number of files: 8
Official DR value: DR12

==============================================================================================
Bass – Peter Giles
Design [Sleeve], Painting [Inside], Words By – Peter Sinfield
Drums – Michael Giles
Engineer – Robin Thompson
Engineer [Assistants] – Jeff*, Tony*
Guitar, Mellotron – Robert Fripp
Mastered By – GP*
Painting [Cover] – Tammo de Jongh*
Piano – Keith Tippet*
Producer – Peter Sinfield, Robert Fripp
Saxophone, Flute – Mel Collins
Vocals – Gordon Haskell (tracks: A3), Greg Lake
This reissue blows! (This rip can be your next "go to" version of this LP.)
Another excellent 1975 Atlantic reissue. I've heard different pressings of this LP and this has me amazed. Normally one wrinkle your nose when you hear the word "re-issue". But like everything, there are good and bad … and good reissues, they are very good! This is another great example, to clear doubts listen the most troubled and silent tracks: The Devil's Triangle (First 25 seconds), Cadence And Cascade, Peace - A Theme, etc. Is that the quality, detail, texture and sound separation… is without discussion.
Fran Solo, 2016

Essential: a masterpiece of progressive rock music
What do you do when you score with the greatest album of your generation? Do another one!
Indeed, this is certainly In the Court part 2…and as good as the original! Well, why would it be the contrary? Every tiny bit that made Court a masterpiece is well recycled. I'm using the term 'recycled' to say that the ingredients are the same, but just not in the same order.

BUT, not everything's the same. We have some new arrival with the pre-Lizard song Cat Food. A good blend of crazy writing and quirky lyrics. And also the instrumental Devil's Triangle who bears some ressemblance to Watcher of the Skies (genesis), thanks to the intensive use of the mellotron. The track's quite well represented by the title, as the anxious and claustrophobic atmosphere that gets thicker and thicker and thicker…and cacophonic (a prelude to Lark's Tongue perhaps?).

Honestly, I frankly think that Fat Lake's voice is THE one. It's crystal clear and it can be pushed to more ragged textures (Cat Food). Too bad, but I do enjoy my ELP records for that reason.

With Lake's voice, truck loads of Mellotron and some very adventurous tracks (Devil's Triangle), Wake of Poseidon is in my humble opinion AS good as Court of Crimson King since they're so alike. I know the comparison is hazardous for many!

The long forgotten twin brother of Court.
Review by Menswear, progarchives.com
Recorded At – Wessex Sound Studios
Pressed By – PRC Recording Company, Richmond, IN
Mastered At – Atlantic Studios
Manufactured By – Atlantic Recording Corporation
Published By – TRO-Total Music, Inc.
Copyright © – Atlantic Recording Corporation
Copyright © – E.G. Music Ltd.

Notes
Label variation shows pressed by PRC Recording Company, Richmond, IN (RI suffix on label matrix)

Recorded at Wessex Sound Studios, London

Gatefold (Textured)

Barcode and Other Identifiers
Matrix / Runout (A Side Label): ST-A-701919RI
Matrix / Runout (B Side Label): ST-A-701920RI
Matrix / Runout (A Side Etch): ST-A-701919-C AT GP PRC
Matrix / Runout (B Side Etch): ST-A-701920-C AT GP PRC
#777#777#777#777
Правила, инструкции, FAQ!!!
Торрент  Добавлен [24 авг 2016, 12:09] Скачать торрент Магнет ссылка
Скачать торрент
[ Размер 18.45 КБ / Просмотров 5 ]

Статус
Проверен 
 
Размер  873.32 МБ
Приватный: Нет (DHT включён)
.torrent скачан  0
 


     Отправить личное сообщение
   
Страница 1 из 1
Показать сообщения за:  Поле сортировки  
Начать новую тему Ответить на тему


Сейчас этот форум просматривают: нет зарегистрированных пользователей и гости: 0


Вы не можете начинать темы
Вы не можете отвечать на сообщения
Вы не можете редактировать свои сообщения
Вы не можете удалять свои сообщения
Вы не можете добавлять вложения

Перейти:  
cron
cron