Начать новую тему Ответить на тему
Статистика раздачи
Размер: 1.05 ГБ | Добавлен: 24 авг 2016, 11:50 | Скачали: 0
Сидеров: 2  [0 байт/сек]    Личеров: 4  [0 байт/сек]
Пред. тема | След. тема 

Автор
Сообщение

СообщениеДобавлено: 24 авг 2016, 11:50 

Ответить с цитатой 

Jethro Tull - Bursting Out
Жанр: Progressive-Rock
Год выпуска: 1978
Лейбл: Chrysalis – 301 275-420
Страна-производитель: Germany
Аудио кодек: FLAC
Тип рипа: tracks+.cue
Формат записи: 32/48
Формат раздачи: 24/48
Продолжительность: 01:33:39

Треклист:
A1. No Lullaby [00:05:54]
A2. Sweet Dream [00:06:09]
A3. Skating Away On The Thin Ice Of A New Day [00:04:25]
A4. Jack In The Green [00:03:12]
A5. One Brown Mouse [00:03:40]

B1. A New Day Yesterday [00:03:18]
B2. Flute Solo Improvisation / God Rest Ye Merry Gentlemen / Bouree [00:05:41]
B3. Songs From The Wood [00:02:39]
B4. Thick As A Brick [00:12:24]

C1. Hunting Girl [00:06:25]
C2. Too Old To Rock 'n' Roll, Too Young To Die [00:03:54]
C3. Conundrum [00:06:54]
C4. Minstrel In The Gallery [00:05:51]
D1. Cross-Eyed Mary [00:04:01]

D2. Quatrain [00:01:36]
D3. Aqualung [00:08:30]
D4. Locomotive Breath [00:05:31]
D5. The Dambusters March / Medley [00:03:28]

Источник оцифровки: Fran Solo Авакс
Код класса состояния винила: VG+
Устройство воспроизведения: Turntable: Marantz 6170 SHURE M97xE
АЦП: MacPro 2x2 GHz Dual-Core Intel Xeon, integrated Audio
Soundcard
Программа-оцифровщик: Adobe Audition CS 5.5 & Amadeus PRO
Обработка: Clickrepair




Код:
foobar2000 1.1.13 / Dynamic Range Meter 1.1.1
log date: 2012-06-27 22:11:51

--------------------------------------------------------------------------------
Analyzed: Jethro Tull / Bursting Out: Jethro Tull Live
--------------------------------------------------------------------------------

DR         Peak         RMS     Duration Track
--------------------------------------------------------------------------------
DR13      -1.52 dB   -18.58 dB      5:55 01-No Lullaby
DR13      -2.52 dB   -19.76 dB      6:10 02-Sweet Dream
DR13      -3.18 dB   -19.66 dB      4:25 03-Skating Away On The Thin Ice Of A New Day
DR14      -0.45 dB   -18.72 dB      3:12 04-Jack In The Green
DR12      -1.33 dB   -17.34 dB      3:41 05-One Brown Mouse
DR14      -0.06 dB   -17.80 dB      3:19 06-A New Day Yesterday
DR15      -2.62 dB   -22.89 dB      5:42 07-Flute Solo Improvisation / God Rest Ye Merry Gentlemen / Bouree
DR13      -2.43 dB   -19.95 dB      2:39 08-Songs From The Wood
DR13      -1.62 dB   -18.11 dB     12:24 09-Thick As A Brick
DR14      -2.01 dB   -19.33 dB      6:25 01-Hunting Girl
DR13      -0.94 dB   -17.32 dB      3:55 02-Too Old To Rock 'n' Roll, Too Young To Die
DR13      -4.50 dB   -19.76 dB      6:55 03-Conundrum
DR13      -1.90 dB   -17.97 dB      5:52 04-Minstrel In The Gallery
DR12      -1.33 dB   -16.36 dB      4:01 05-Cross-Eyed Mary
DR12      -2.83 dB   -17.02 dB      1:36 06-Quatrain
DR13      -1.12 dB   -17.70 dB      8:30 07-Aqualung
DR13      -0.25 dB   -17.11 dB      5:32 08-Locomotive Breath
DR12      -1.22 dB   -16.91 dB      3:28 09-The Dambusters March / Medley
--------------------------------------------------------------------------------

Number of tracks:  18
Official DR value: DR13

Samplerate:        48000 Hz
Channels:          2
Bits per sample:   24
Bitrate:           1637 kbps
Codec:             FLAC
================================================================================
Правила, инструкции, FAQ!!!
Торрент  Добавлен [24 авг 2016, 11:50] Скачать торрент Магнет ссылка
Скачать торрент
[ Размер 12.32 КБ / Просмотров 29 ]

Статус
Проверен 
 
Размер  1.05 ГБ
Приватный: Нет (DHT включён)
.torrent скачан  0
 


     Отправить личное сообщение
   
Страница 1 из 1
Показать сообщения за:  Поле сортировки  
Начать новую тему Ответить на тему


Сейчас этот форум просматривают: нет зарегистрированных пользователей и гости: 0


Вы не можете начинать темы
Вы не можете отвечать на сообщения
Вы не можете редактировать свои сообщения
Вы не можете удалять свои сообщения
Вы не можете добавлять вложения

Перейти:  
cron
cron