Начать новую тему Ответить на тему
Статистика раздачи
Размер: 2.33 ГБ | Добавлен: 24 авг 2016, 12:30 | Скачали: 1
Сидеров: 1  [0 байт/сек]    Личеров: 0  [0 байт/сек]
Пред. тема | След. тема 

Автор
Сообщение

СообщениеДобавлено: 24 авг 2016, 12:30 

Ответить с цитатой 

Ian Anderson - Ian Anderson's Thick As A Brick 2, Manchester, UK, 22.04.12 (Audience Recording)

Жанр: Progressive Rock
Год выпуска: 2012
Лейбл: Bootleg
Страна-производитель: UK
Аудио кодек: FLAC
Тип рипа: tracks+.cue
Формат записи: 24/96
Формат раздачи: 24/96
Продолжительность: 01:50:48
Треклист:
Part One - THICK AS A BRICK - 50:48
01 - Intro (01:11)
02 - Thick As A Brick (part 1) (22:59)
03 - News & Weather (00:44)
04 - Touchy Areas (04:11)
05 - Thick As A Brick (part 2) (21:40)

Part Two - THICK AS A BRICK 2 - 60:33
06 - Tuffty's Intro (03:27)
07 - From A Pebble Thrown (02:51)
08 - Pebble Instrumental (03:42)
09 - Might Have Beens (00:49)
10 - Upper Sixth Loan Shark (01:17)
11 - Banker Bets, Banker Wins (04:31)
12 - Swing It Far (03:32)
13 - Adrift And Dumbfounded (04:21)
14 - Old School Song (03:09)
14 - Old School Song (03:09)
16 - Power And Spirit (01:58)
17 - Give Till It Hurts (01:14)
18 - Cosy Corner (01:24)
19 - Shunt And Shuffle (02:17)
20 - A Change Of Horses (07:44)
21 - Confessional (03:10)
22 - Kismet In Suburbia (04:14)
23 - What Ifs, Maybes And Might Have Beens (03:34)
24 - Tuffty's Outro (03:29)
Band Members

Ian Anderson - Flute, Acoustic Guitar, One Legged Pose and Vocal
John O'Hara - Piano, Hammond Organ and Accordion
David Goodier - Bass and Glockenspiel
Florian Opahle - Electric Guitar
Scott Hammond - Drums and Percussion
Ryan O'Donnell - Song, Dance, Props and Sweeping
Источник оцифровки: Obdula_G, dimeadozen
Устройство воспроизведения: Tascam DR-08
Предварительный усилитель: нет
АЦП: Tascam DR-08
Программа-оцифровщик: Tascam DR-08
Обработка: No Eq. No Compression.
Доп. информация:
В куе ошибка в 15 треке, прошу прощения за косяк. Вот правильный вариант
REM GENRE "Progressive Rock"
REM DATE "2012"
REM COMMENT "Front row recording at 24/96 and sounds quite nice! Recorded on a tascam DR-08"
PERFORMER "Ian Anderson"
TITLE "Ian Anderson's Thick As A Brick 2, 22.04.12, Manchester, UK"
FILE "01 Intro.flac" WAVE
TRACK 01 AUDIO
TITLE "Intro"
INDEX 01 00:00:00
FILE "02 Thick As A Brick part 1.flac" WAVE
TRACK 02 AUDIO
TITLE "Thick As A Brick (part 1)"
INDEX 01 00:00:00
FILE "03 News & Weather.flac" WAVE
TRACK 03 AUDIO
TITLE "News & Weather"
INDEX 01 00:00:00
FILE "04 Touchy Areas.flac" WAVE
TRACK 04 AUDIO
TITLE "Touchy Areas"
INDEX 01 00:00:00
FILE "05 Thick As A Brick part 2.flac" WAVE
TRACK 05 AUDIO
TITLE "Thick As A Brick (part 2)"
INDEX 01 00:00:00
FILE "06 Tuffty's Intro.flac" WAVE
TRACK 06 AUDIO
TITLE "Tuffty's Intro"
INDEX 01 00:00:00
FILE "07 From A Pebble Thrown.flac" WAVE
TRACK 07 AUDIO
TITLE "From A Pebble Thrown"
INDEX 01 00:00:00
FILE "08 Pebble Instrumental.flac" WAVE
TRACK 08 AUDIO
TITLE "Pebble Instrumental"
INDEX 01 00:00:00
FILE "09 Might Have Beens.flac" WAVE
TRACK 09 AUDIO
TITLE "Might Have Beens"
INDEX 01 00:00:00
FILE "10 Upper Sixth Loan Shark.flac" WAVE
TRACK 10 AUDIO
TITLE "Upper Sixth Loan Shark"
INDEX 01 00:00:00
FILE "11 Banker Bets, Banker Wins.flac" WAVE
TRACK 11 AUDIO
TITLE "Banker Bets, Banker Wins"
INDEX 01 00:00:00
FILE "12 Swing It Far.flac" WAVE
TRACK 12 AUDIO
TITLE "Swing It Far"
INDEX 01 00:00:00
FILE "13 Adrift and Dumbfounded.flac" WAVE
TRACK 13 AUDIO
TITLE "Adrift And Dumbfounded"
INDEX 01 00:00:00
FILE "14 Old School Song.flac" WAVE
TRACK 14 AUDIO
TITLE "Old School Song"
INDEX 01 00:00:00
FILE "15 Wootton Bassett Town.flac" WAVE
TRACK 15 AUDIO
TITLE "Wootton Bassett Town"
INDEX 01 00:00:00
FILE "16 Power and Spirit.flac" WAVE
TRACK 16 AUDIO
TITLE "Power And Spirit"
INDEX 01 00:00:00
FILE "17 Give Till It Hurts.flac" WAVE
TRACK 17 AUDIO
TITLE "Give Till It Hurts"
INDEX 01 00:00:00
FILE "18 Cosy Corner.flac" WAVE
TRACK 18 AUDIO
TITLE "Cosy Corner"
INDEX 01 00:00:00
FILE "19 Shunt and Shuffle.flac" WAVE
TRACK 19 AUDIO
TITLE "Shunt And Shuffle"
INDEX 01 00:00:00
FILE "20 A Change of Horses.flac" WAVE
TRACK 20 AUDIO
TITLE "A Change Of Horses"
INDEX 01 00:00:00
FILE "21 Confessional.flac" WAVE
TRACK 21 AUDIO
TITLE "Confessional"
INDEX 01 00:00:00
FILE "22 Kismet In Suburbia.flac" WAVE
TRACK 22 AUDIO
TITLE "Kismet In Suburbia"
INDEX 01 00:00:00
FILE "23 What Ifs, Maybes and Might Have Beens.flac" WAVE
TRACK 23 AUDIO
TITLE "What Ifs, Maybes And Might Have Beens"
INDEX 01 00:00:00
FILE "24 Tuffty's Outro.flac" WAVE
TRACK 24 AUDIO
TITLE "Tuffty's Outro"
INDEX 01 00:00:00
Запись на цифровой диктофон Tascam DR-08 в формате WAV 24/96.
Recorded on a tascam DR-08.
Recorded 24 bit 96 kHz Wav. Tracked and Flac'd (8) in Reaper.
No Eq. No Compression.
Правила, инструкции, FAQ!!!
Торрент  Добавлен [24 авг 2016, 12:30] Скачать торрент Магнет ссылка
Скачать торрент
[ Размер 14.09 КБ / Просмотров 12 ]

Статус
Проверен 
 
Размер  2.33 ГБ
Приватный: Нет (DHT включён)
.torrent скачан  1
 


     Отправить личное сообщение
   
Страница 1 из 1
Показать сообщения за:  Поле сортировки  
Начать новую тему Ответить на тему


Сейчас этот форум просматривают: нет зарегистрированных пользователей и гости: 0


Вы не можете начинать темы
Вы не можете отвечать на сообщения
Вы не можете редактировать свои сообщения
Вы не можете удалять свои сообщения
Вы не можете добавлять вложения

Перейти:  
cron