Начать новую тему Ответить на тему
Статистика раздачи
Размер: 766.53 МБ | Добавлен: 24 авг 2016, 12:24 | Скачали: 1
Сидеров: 3  [0 байт/сек]    Личеров: 1  [0 байт/сек]
Пред. тема | След. тема 

Автор
Сообщение

СообщениеДобавлено: 24 авг 2016, 12:24 

Ответить с цитатой 

Renaissance - Turn Of The Cards

Жанр: Progressive Rock / Art Rock
Год выпуска диска: 1974
Производитель диска: UK
Аудио кодек: FLAC
Тип рипа: image+.cue
Битрейт аудио: lossless
Продолжительность: 40:26
Трэклист:
Side A
1. Running Hard 9:37
2. I Think Of You 3:07
3. Things I Don't Understand 9:29
Side B
4. Black Flame 6:23
5. Cold Is Being 3:00
6. Mother Russia 9:18

CUE-файл сделан мной вручную.

Доп. информация:
Класс состояния винила - Ex
Устройство воспроизведения - Denon DP-29F
Фонокорректор - Cambridge Audio Azure 640P
АЦП - M-Audio Audiophile USB (ASIO)
Запись сделана в программе Adobe Audition 3.0.1
Обработка не производилась
Формат записи (Bit/kHz) - 24/96
Формат раздачи (Bit/kHz) - 24/96
REM DATE 1973
REM COMMENT "Adobe Audition 3.0.1"
PERFORMER "Renaissance"
TITLE "Turn Of The Cards"
FILE "Side A.flac" WAVE
TRACK 01 AUDIO
TITLE "Running Hard"
PERFORMER "Renaissance"
INDEX 01 00:00:00
TRACK 02 AUDIO
TITLE "I Think Of You"
PERFORMER "Renaissance"
INDEX 01 09:25:00
TRACK 03 AUDIO
TITLE "Things I Don't Understand"
PERFORMER "Renaissance"
INDEX 01 12:35:00
FILE "Side B.flac" WAVE
TRACK 04 AUDIO
TITLE "Black Flame"
PERFORMER "Renaissance"
INDEX 01 00:00:00
TRACK 05 AUDIO
TITLE "Cold Is Being"
PERFORMER "Renaissance"
INDEX 01 06:25:00
TRACK 06 AUDIO
TITLE "Mother Russia"
PERFORMER "Renaissance"
INDEX 01 09:25:00






Правила, инструкции, FAQ!!!
Торрент  Добавлен [24 авг 2016, 12:24] Скачать торрент Магнет ссылка
Скачать торрент
[ Размер 15.8 КБ / Просмотров 9 ]

Статус
Проверен 
 
Размер  766.53 МБ
Приватный: Нет (DHT включён)
.torrent скачан  1
 


     Отправить личное сообщение
   
Страница 1 из 1
Показать сообщения за:  Поле сортировки  
Начать новую тему Ответить на тему


Сейчас этот форум просматривают: нет зарегистрированных пользователей и гости: 0


Вы не можете начинать темы
Вы не можете отвечать на сообщения
Вы не можете редактировать свои сообщения
Вы не можете удалять свои сообщения
Вы не можете добавлять вложения

Перейти:  
cron
cron