Начать новую тему Ответить на тему
Статистика раздачи
Размер: 723.51 МБ | Добавлен: 24 авг 2016, 11:51 | Скачали: 0
Сидеров: 5  [0 байт/сек]    Личеров: 1  [0 байт/сек]
Пред. тема | След. тема 

Автор
Сообщение

СообщениеДобавлено: 24 авг 2016, 11:51 

Ответить с цитатой 

Renaissance - Renaissance

Жанр: Progressive Rock / Art Rock
Год выпуска диска: 1969
Производитель диска: UK
Аудио кодек: FLAC
Тип рипа: image+.cue
Битрейт аудио: lossless
Продолжительность: 38:44
Трэклист:
Side A
01. Kings And Queens 10:55
02. Innocence 7:05
Side B
03. Island 5:57
04. Wanderer 4:00
05. Bullet 11:24

CUE-файл сделан мной вручную.

Доп. информация:
Класс состояния винила - Ex
Устройство воспроизведения - Denon DP-29F
Фонокорректор - Cambridge Audio Azure 640P
АЦП - M-Audio Audiophile USB (ASIO)
Запись сделана в программе Adobe Audition 3.0.1
Обработка: Click/Pop Eliminator
Формат записи (Bit/kHz) - 24/96
Формат раздачи (Bit/kHz) - 24/96
REM DATE 1969
REM COMMENT "Adobe Audition 3.0.1"
PERFORMER "Renaissance"
TITLE "Renaissance"
FILE "Side A.flac" WAVE
TRACK 01 AUDIO
TITLE "Kings And Queens"
PERFORMER "Renaissance"
INDEX 01 00:00:00
TRACK 02 AUDIO
TITLE "Innocence"
PERFORMER "Renaissance"
INDEX 01 10:45:00
FILE "Side B.flac" WAVE
TRACK 03 AUDIO
TITLE "Island"
PERFORMER "Renaissance"
INDEX 01 00:00:00
TRACK 04 AUDIO
TITLE "Wanderer"
PERFORMER "Renaissance"
INDEX 01 05:50:00
TRACK 05 AUDIO
TITLE "Bullet"
PERFORMER "Renaissance"
INDEX 01 09:50:00





Правила, инструкции, FAQ!!!
Торрент  Добавлен [24 авг 2016, 11:51] Скачать торрент Магнет ссылка
Скачать торрент
[ Размер 14.91 КБ / Просмотров 18 ]

Статус
Проверен 
 
Размер  723.51 МБ
Приватный: Нет (DHT включён)
.torrent скачан  0
 


     Отправить личное сообщение
   
Страница 1 из 1
Показать сообщения за:  Поле сортировки  
Начать новую тему Ответить на тему


Сейчас этот форум просматривают: нет зарегистрированных пользователей и гости: 0


Вы не можете начинать темы
Вы не можете отвечать на сообщения
Вы не можете редактировать свои сообщения
Вы не можете удалять свои сообщения
Вы не можете добавлять вложения

Перейти:  
cron
cron